<?xml version="1.0" standalone="no"?>
<!--
Font Awesome Free 5.9.0 by @fontawesome - https://fontawesome.com
License - https://fontawesome.com/license/free (Icons: CC BY 4.0, Fonts: SIL OFL 1.1, Code: MIT License)
-->
<!DOCTYPE svg PUBLIC "-//W3C//DTD SVG 1.1//EN" "http://www.w3.org/Graphics/SVG/1.1/DTD/svg11.dtd" >
<svg xmlns="http://www.w3.org/2000/svg" xmlns:xlink="http://www.w3.org/1999/xlink" version="1.1">
<metadata>
Created by FontForge 20190112 at Tue Jun  4 15:16:44 2019
 By Robert Madole
Copyright (c) Font Awesome
</metadata>
<defs>
<font id="FontAwesome5Brands-Regular" horiz-adv-x="448" >
  <font-face 
    font-family="Font Awesome 5 Brands Regular"
    font-weight="400"
    font-stretch="normal"
    units-per-em="512"
    panose-1="2 0 5 3 0 0 0 0 0 0"
    ascent="448"
    descent="-64"
    bbox="-0.200195 -66.9505 641.5 448.3"
    underline-thickness="25"
    underline-position="-51"
    unicode-range="U+0020-F842"
  />
    <missing-glyph />
    <glyph glyph-name="twitter-square" unicode="&#xf081;" 
d="M400 416c26.5 0 48 -21.5 48 -48v-352c0 -26.5 -21.5 -48 -48 -48h-352c-26.5 0 -48 21.5 -48 48v352c0 26.5 21.5 48 48 48h352zM351.1 257.2c12.8008 9.2998 24 20.8994 32.9004 34c-11.7998 -5.10059 -24.5996 -8.7998 -37.7998 -10.2002
c13.5996 8.09961 23.8994 20.9004 28.7998 36.0996c-12.5996 -7.5 -26.7998 -13 -41.5996 -15.7998c-12 12.7998 -29 20.7002 -47.9004 20.7002c-40 0 -73.2998 -36.0996 -64 -80.5996c-54.4004 2.7998 -102.9 28.7998 -135.2 68.5996
c-5.7002 -9.7002 -8.89941 -20.9004 -8.89941 -33.0996v-0.107422c0 -19.3584 13.0811 -43.7715 29.1992 -54.4932c-10.6992 0.400391 -20.8994 3.40039 -29.5996 8.2998v-0.799805c0 -31.8994 22.5 -58.2998 52.5 -64.3994
c-10.4004 -2.7002 -19.5 -2.7002 -29.5996 -1.2002c8.2998 -26 32.5 -44.9004 61.2998 -45.5c-22.5 -17.6006 -50.7002 -28 -81.4004 -28c-5.39941 0 -10.5 0.200195 -15.7998 0.799805c29 -18.5996 63.5 -29.4004 100.7 -29.4004c120.6 0 186.6 99.9004 186.6 186.601
c0 2.7998 0 5.7002 -0.200195 8.5z" />
    <glyph glyph-name="facebook-square" unicode="&#xf082;" 
d="M400 416c26.4961 0 48 -21.5039 48 -48v-352c0 -26.4961 -21.5039 -48 -48 -48h-137.25v152.31h57.7803l11 71.6904h-68.7803v46.5498c0 19.6104 9.61035 38.7305 40.4199 38.7305h31.2705v61s-28.3809 4.83984 -55.5205 4.83984
c-56.6699 0 -93.6699 -34.3301 -93.6699 -96.4805v-54.6396h-63v-71.6904h63v-152.31h-137.25c-26.4961 0 -48 21.5039 -48 48v352c0 26.4961 21.5039 48 48 48h352z" />
    <glyph glyph-name="linkedin" unicode="&#xf08c;" 
d="M416 416c17.5996 0 32 -14.5 32 -32.2998v-383.4c0 -17.7998 -14.4004 -32.2998 -32 -32.2998h-384.1c-17.6006 0 -31.9004 14.5 -31.9004 32.2998v383.4c0 17.7998 14.2998 32.2998 31.9004 32.2998h384.1zM135.4 32h0.0996094v213.8h-66.5v-213.8h66.4004zM102.2 275
c21.2998 0 38.5 17.2002 38.5 38.5c0 21.2002 -17.2998 38.5 -38.5 38.5c-21.2998 0 -38.5 -17.2998 -38.5 -38.5s17.2002 -38.5 38.5 -38.5zM384.3 32v117.2c0 57.5996 -12.5 101.899 -79.7002 101.899c-32.2998 0 -54 -17.6992 -62.8994 -34.5h-0.900391v29.2002h-63.7002
v-213.8h66.4004v105.8c0 27.9004 5.2998 54.9004 39.9004 54.9004c34 0 34.5 -31.9004 34.5 -56.7002v-104h66.3994z" />
    <glyph glyph-name="github-square" unicode="&#xf092;" 
d="M400 416c26.5 0 48 -21.5 48 -48v-352c0 -26.5 -21.5 -48 -48 -48h-352c-26.5 0 -48 21.5 -48 48v352c0 26.5 21.5 48 48 48h352zM277.3 32.2998c66 22 110.8 84.9004 110.7 158.3c0 91.8008 -74.4004 161.5 -166.2 161.5s-162 -69.6992 -162 -161.5
c0 -73.3994 46.2002 -136.199 112.2 -158.3c8.5 -1.5 11.5 3.7002 11.5 8c0 4.10059 -0.200195 26.7002 -0.200195 40.6006c0 0 -46.3994 -10 -56.0996 19.6992c0 0 -7.60059 19.2002 -18.4004 24.2002c0 0 -15.0996 10.4004 1.10059 10.2002
c0 0 16.3994 -1.2998 25.5 -17.0996c14.5 -25.6006 38.7998 -18.2002 48.2998 -13.9004c1.5 10.5996 5.7998 18 10.5996 22.2998c-37 4.10059 -74.2998 9.5 -74.2998 73.1006c0 18.1992 5 27.2998 15.5996 39c-1.7998 4.39941 -7.39941 22.0996 1.7002 45
c13.9004 4.2998 45.7002 -17.9004 45.7002 -17.9004c13.2002 3.7002 27.5 5.59961 41.5996 5.59961c14.1006 0 28.4004 -1.89941 41.6006 -5.59961c0 0 31.7998 22.2002 45.7002 17.9004c9.09961 -23 3.39941 -40.7002 1.69922 -45
c10.6006 -11.7002 17.1006 -20.8008 17.1006 -39c0 -63.9004 -39 -69 -76 -73.1006c6.09961 -5.2002 11.2998 -15.0996 11.2998 -30.7002c0 -22.2998 -0.200195 -49.8994 -0.200195 -55.2998c0 -4.2998 3.10059 -9.5 11.5 -8zM179.2 93.4004
c-1.90039 -0.400391 -3.7002 0.399414 -3.90039 1.69922c-0.200195 1.5 1.10059 2.80078 3 3.2002c1.90039 0.200195 3.7002 -0.599609 3.90039 -1.89941c0.299805 -1.30078 -1 -2.60059 -3 -3zM169.7 94.2998c0 1.5 -1.7998 2.60059 -3.7002 2.40039
c-2 0 -3.5 -1.10059 -3.5 -2.40039c0 -1.5 1.5 -2.59961 3.7002 -2.39941c2 0 3.5 1.09961 3.5 2.39941zM156 95.4004c-0.400391 -1.30078 -2.40039 -1.90039 -4.09961 -1.30078c-1.90039 0.400391 -3.2002 1.90039 -2.80078 3.2002
c0.400391 1.2998 2.40039 1.90039 4.10059 1.5c2 -0.599609 3.2998 -2.09961 2.7998 -3.39941zM143.7 100.8c0.899414 0.799805 0.399414 2.7998 -0.900391 4.10059c-1.5 1.5 -3.39941 1.69922 -4.2998 0.599609c-1 -0.900391 -0.599609 -2.7998 0.900391 -4.09961
c1.5 -1.5 3.39941 -1.7002 4.2998 -0.600586zM134.6 109.9c1.10059 0.799805 1.10059 2.59961 0 4.09961c-0.899414 1.5 -2.59961 2.2002 -3.69922 1.2998c-1.10059 -0.700195 -1.10059 -2.39941 0 -3.89941c1.09961 -1.5 2.7998 -2.10059 3.69922 -1.5zM128.1 119.6
c0.900391 0.700195 0.700195 2.2002 -0.399414 3.5c-1.10059 1 -2.60059 1.5 -3.5 0.600586c-0.900391 -0.700195 -0.700195 -2.2002 0.399414 -3.5c1.10059 -1 2.60059 -1.5 3.5 -0.600586zM121.4 127c0.399414 0.799805 -0.200195 1.90039 -1.5 2.59961
c-1.30078 0.5 -2.40039 0.200195 -2.80078 -0.399414c-0.399414 -0.900391 0.200195 -2 1.5 -2.60059c1.10059 -0.699219 2.40039 -0.5 2.80078 0.400391z" />
    <glyph glyph-name="twitter" unicode="&#xf099;" horiz-adv-x="512" 
d="M459.37 296.284c0.325195 -4.54785 0.325195 -9.09766 0.325195 -13.6455c0 -138.72 -105.583 -298.558 -298.559 -298.558c-59.4521 0 -114.68 17.2188 -161.137 47.1055c8.44727 -0.973633 16.5684 -1.29883 25.3398 -1.29883
c49.0547 0 94.2129 16.5684 130.274 44.832c-46.1318 0.975586 -84.792 31.1885 -98.1123 72.7725c6.49805 -0.974609 12.9951 -1.62402 19.8184 -1.62402c9.4209 0 18.8428 1.2998 27.6133 3.57324c-48.0811 9.74707 -84.1426 51.9795 -84.1426 102.984v1.29883
c13.9688 -7.79688 30.2139 -12.6699 47.4307 -13.3184c-28.2637 18.8428 -46.7803 51.0049 -46.7803 87.3906c0 19.4922 5.19629 37.3604 14.2939 52.9541c51.6543 -63.6748 129.3 -105.258 216.364 -109.807c-1.62402 7.79688 -2.59863 15.918 -2.59863 24.04
c0 57.8271 46.7822 104.934 104.934 104.934c30.2139 0 57.502 -12.6699 76.6709 -33.1367c23.7148 4.54785 46.4551 13.3193 66.5986 25.3398c-7.79785 -24.3662 -24.3662 -44.833 -46.1318 -57.8271c21.1172 2.27344 41.584 8.12207 60.4258 16.2432
c-14.292 -20.791 -32.1611 -39.3086 -52.6279 -54.2529z" />
    <glyph glyph-name="facebook" unicode="&#xf09a;" horiz-adv-x="512" 
d="M504 192c0 -123.78 -90.6904 -226.38 -209.25 -245v173.31h57.7803l11 71.6904h-68.7803v46.5498c0 19.6104 9.61035 38.7305 40.4102 38.7305h31.2803v61s-28.3809 4.83984 -55.5205 4.83984c-56.6699 0 -93.6699 -34.3301 -93.6699 -96.4805v-54.6396h-63v-71.6904h63
v-173.31c-118.56 18.6201 -209.25 121.22 -209.25 245c0 137 111 248 248 248s248 -111 248 -248z" />
    <glyph glyph-name="github" unicode="&#xf09b;" horiz-adv-x="496" 
d="M165.9 50.5996c0 -2 -2.30078 -3.59961 -5.2002 -3.59961c-3.2998 -0.299805 -5.60059 1.2998 -5.60059 3.59961c0 2 2.30078 3.60059 5.2002 3.60059c3 0.299805 5.60059 -1.2998 5.60059 -3.60059zM134.8 55.0996c0.700195 2 3.60059 3 6.2002 2.30078
c3 -0.900391 4.90039 -3.2002 4.2998 -5.2002c-0.599609 -2 -3.59961 -3 -6.2002 -2c-3 0.599609 -5 2.89941 -4.2998 4.89941zM179 56.7998c2.90039 0.299805 5.59961 -1 5.90039 -2.89941c0.299805 -2 -1.7002 -3.90039 -4.60059 -4.60059
c-3 -0.700195 -5.59961 0.600586 -5.89941 2.60059c-0.300781 2.2998 1.69922 4.19922 4.59961 4.89941zM244.8 440c138.7 0 251.2 -105.3 251.2 -244c0 -110.9 -67.7998 -205.8 -167.8 -239c-12.7002 -2.2998 -17.2998 5.59961 -17.2998 12.0996
c0 8.2002 0.299805 49.9004 0.299805 83.6006c0 23.5 -7.7998 38.5 -17 46.3994c55.8994 6.30078 114.8 14 114.8 110.5c0 27.4004 -9.7998 41.2002 -25.7998 58.9004c2.59961 6.5 11.0996 33.2002 -2.60059 67.9004c-20.8994 6.59961 -69 -27 -69 -27
c-20 5.59961 -41.5 8.5 -62.7998 8.5s-42.7998 -2.90039 -62.7998 -8.5c0 0 -48.0996 33.5 -69 27c-13.7002 -34.6006 -5.2002 -61.4004 -2.59961 -67.9004c-16 -17.5996 -23.6006 -31.4004 -23.6006 -58.9004c0 -96.1992 56.4004 -104.3 112.3 -110.5
c-7.19922 -6.59961 -13.6992 -17.6992 -16 -33.6992c-14.2998 -6.60059 -51 -17.7002 -72.8994 20.8994c-13.7002 23.7998 -38.6006 25.7998 -38.6006 25.7998c-24.5 0.300781 -1.59961 -15.3994 -1.59961 -15.3994c16.4004 -7.5 27.7998 -36.6006 27.7998 -36.6006
c14.7002 -44.7998 84.7002 -29.7998 84.7002 -29.7998c0 -21 0.299805 -55.2002 0.299805 -61.3994c0 -6.5 -4.5 -14.4004 -17.2998 -12.1006c-99.7002 33.4004 -169.5 128.3 -169.5 239.2c0 138.7 106.1 244 244.8 244zM97.2002 95.0996
c1.2998 1.30078 3.59961 0.600586 5.2002 -1c1.69922 -1.89941 2 -4.19922 0.699219 -5.19922c-1.2998 -1.30078 -3.59961 -0.600586 -5.19922 1c-1.7002 1.89941 -2 4.19922 -0.700195 5.19922zM86.4004 103.2c0.699219 1 2.2998 1.2998 4.2998 0.700195
c2 -1 3 -2.60059 2.2998 -3.90039c-0.700195 -1.40039 -2.7002 -1.7002 -4.2998 -0.700195c-2 1 -3 2.60059 -2.2998 3.90039zM118.8 67.5996c1.2998 1.60059 4.2998 1.30078 6.5 -1c2 -1.89941 2.60059 -4.89941 1.2998 -6.19922
c-1.2998 -1.60059 -4.19922 -1.30078 -6.5 1c-2.2998 1.89941 -2.89941 4.89941 -1.2998 6.19922zM107.4 82.2998c1.59961 1.2998 4.19922 0.299805 5.59961 -2c1.59961 -2.2998 1.59961 -4.89941 0 -6.2002c-1.2998 -1 -4 0 -5.59961 2.30078
c-1.60059 2.2998 -1.60059 4.89941 0 5.89941z" />
    <glyph glyph-name="pinterest" unicode="&#xf0d2;" horiz-adv-x="496" 
d="M496 192c0 -137 -111 -248 -248 -248c-25.5996 0 -50.2002 3.90039 -73.4004 11.0996c10.1006 16.5 25.2002 43.5 30.8008 65c3 11.6006 15.3994 59 15.3994 59c8.10059 -15.3994 31.7002 -28.5 56.7998 -28.5c74.8008 0 128.7 68.8008 128.7 154.301
c0 81.8994 -66.8994 143.199 -152.899 143.199c-107 0 -163.9 -71.7998 -163.9 -150.1c0 -36.4004 19.4004 -81.7002 50.2998 -96.0996c4.7002 -2.2002 7.2002 -1.2002 8.2998 3.2998c0.800781 3.39941 5 20.2998 6.90039 28.0996
c0.599609 2.5 0.299805 4.7002 -1.7002 7.10059c-10.0996 12.5 -18.2998 35.2998 -18.2998 56.5996c0 54.7002 41.4004 107.6 112 107.6c60.9004 0 103.6 -41.5 103.6 -100.899c0 -67.1006 -33.8994 -113.601 -78 -113.601c-24.2998 0 -42.5996 20.1006 -36.6992 44.8008
c7 29.5 20.5 61.2998 20.5 82.5996c0 19 -10.2002 34.9004 -31.4004 34.9004c-24.9004 0 -44.9004 -25.7002 -44.9004 -60.2002c0 -22 7.40039 -36.7998 7.40039 -36.7998s-24.5 -103.801 -29 -123.2c-5 -21.4004 -3 -51.6006 -0.900391 -71.2002
c-92.1992 36.0996 -157.6 125.9 -157.6 231c0 137 111 248 248 248s248 -111 248 -248z" />
    <glyph glyph-name="pinterest-square" unicode="&#xf0d3;" 
d="M448 368v-352c0 -26.5 -21.5 -48 -48 -48h-245.6c9.7998 16.4004 22.3994 40 27.3994 59.2998c3 11.5 15.2998 58.4004 15.2998 58.4004c8 -15.2998 31.4004 -28.2002 56.3008 -28.2002c74.0996 0 127.399 68.0996 127.399 152.7
c0 81.0996 -66.2002 141.8 -151.399 141.8c-106 0 -162.2 -71.0996 -162.2 -148.6c0 -36 19.2002 -80.8008 49.7998 -95.1006c4.7002 -2.2002 7.09961 -1.2002 8.2002 3.2998c0.799805 3.40039 5 20.1006 6.7998 27.8008c0.599609 2.5 0.299805 4.59961 -1.7002 7
c-10.0996 12.2998 -18.2998 34.8994 -18.2998 56c0 54.1992 41 106.6 110.9 106.6c60.2998 0 102.6 -41.0996 102.6 -99.9004c0 -66.3994 -33.5 -112.399 -77.2002 -112.399c-24.0996 0 -42.0996 19.8994 -36.3994 44.3994c6.89941 29.2002 20.2998 60.7002 20.2998 81.8008
c0 53 -75.5 45.6992 -75.5 -25c0 -21.7002 7.2998 -36.5 7.2998 -36.5c-31.4004 -132.801 -36.0996 -134.5 -29.5996 -192.601l2.19922 -0.799805h-88.5996c-26.5 0 -48 21.5 -48 48v352c0 26.5 21.5 48 48 48h352c26.5 0 48 -21.5 48 -48z" />
    <glyph glyph-name="google-plus-square" unicode="&#xf0d4;" 
d="M400 416c26.5 0 48 -21.5 48 -48v-352c0 -26.5 -21.5 -48 -48 -48h-352c-26.5 0 -48 21.5 -48 48v352c0 26.5 21.5 48 48 48h352zM164 92c57.7002 0 96 40.5 96 97.5996c0 6.5 -0.599609 11.6006 -1.59961 16.6006h-94.4004v-34.4004h56.9004
c-2.40039 -14.5996 -17.2002 -43.0996 -56.8008 -43.0996c-34.0996 0 -61.8994 28.2998 -61.8994 63.2002c0 35 27.7998 63.1992 61.8994 63.1992c19.5 0 32.4004 -8.2998 39.8008 -15.3994l27.0996 26.0996c-17.5 16.4004 -40 26.2002 -67 26.2002
c-55.2998 0 -100 -44.7002 -100 -100s44.7002 -100 100 -100zM384 173.8v29.2002h-29v29h-29.2002v-29h-29v-29.2002h29v-29h29.2002v29h29z" />
    <glyph glyph-name="google-plus-g" unicode="&#xf0d5;" horiz-adv-x="640" 
d="M386.061 219.504c1.83398 -9.69238 3.14355 -19.3838 3.14355 -31.9561c0 -109.753 -73.6055 -187.548 -184.404 -187.548c-106.084 0 -192 85.915 -192 192s85.916 192 192 192c51.8643 0 95.083 -18.8594 128.611 -50.292l-52.126 -50.0303
c-14.1455 13.6211 -39.0283 29.5996 -76.4854 29.5996c-65.4834 0 -118.92 -54.2217 -118.92 -121.277s53.4365 -121.277 118.92 -121.277c75.9609 0 104.514 54.7451 108.965 82.7734h-108.965v66.0088h181.261v-0.000976562zM571.467 213.067h55.7334v-56.001h-55.7334
v-55.7334h-56.001v55.7334h-55.7324v56.001h55.7324v55.7324h56.001v-55.7324z" />
    <glyph glyph-name="linkedin-in" unicode="&#xf0e1;" 
d="M100.28 0h-92.8799v299.1h92.8799v-299.1zM53.79 339.9c-29.7002 0 -53.79 24.5996 -53.79 54.2998c0 29.6914 24.0977 53.79 53.79 53.79s53.79 -24.0986 53.79 -53.79c0 -29.7002 -24.0996 -54.2998 -53.79 -54.2998zM447.9 0h-92.6807v145.6
c0 34.7002 -0.700195 79.2002 -48.29 79.2002c-48.29 0 -55.6895 -37.7002 -55.6895 -76.7002v-148.1h-92.7803v299.1h89.0801v-40.7998h1.2998c12.4004 23.5 42.6904 48.2998 87.8799 48.2998c94 0 111.28 -61.8994 111.28 -142.3v-164.3h-0.0996094z" />
    <glyph glyph-name="github-alt" unicode="&#xf113;" horiz-adv-x="480" 
d="M186.1 119.3c0 -20.8994 -10.8994 -55.0996 -36.6992 -55.0996c-25.8008 0 -36.7002 34.2002 -36.7002 55.0996c0 20.9004 10.8994 55.1006 36.7002 55.1006c25.7998 0 36.6992 -34.2002 36.6992 -55.1006zM480 169.8c0 -31.8994 -3.2002 -65.7002 -17.5 -95
c-37.9004 -76.5996 -142.1 -74.7998 -216.7 -74.7998c-75.7998 0 -186.2 -2.7002 -225.6 74.7998c-14.6006 29 -20.2002 63.1006 -20.2002 95c0 41.9004 13.9004 81.5 41.5 113.601c-5.2002 15.7998 -7.7002 32.3994 -7.7002 48.7998
c0 21.5 4.90039 32.2998 14.6006 51.7998c45.2998 0 74.2998 -9 108.8 -36c29 6.90039 58.7998 10 88.7002 10c27 0 54.1992 -2.90039 80.3994 -9.2002c34 26.7002 63 35.2002 107.8 35.2002c9.80078 -19.5 14.6006 -30.2998 14.6006 -51.7998
c0 -16.4004 -2.60059 -32.7002 -7.7002 -48.2002c27.5 -32.4004 39 -72.2998 39 -114.2zM415.7 119.3c0 43.9004 -26.7002 82.6006 -73.5 82.6006c-18.9004 0 -37 -3.40039 -56 -6c-14.9004 -2.30078 -29.7998 -3.2002 -45.1006 -3.2002
c-15.1992 0 -30.0996 0.899414 -45.0996 3.2002c-18.7002 2.59961 -37 6 -56 6c-46.7998 0 -73.5 -38.7002 -73.5 -82.6006c0 -87.7998 80.4004 -101.3 150.4 -101.3h48.1992c70.3008 0 150.601 13.4004 150.601 101.3zM333.1 174.4
c25.8008 0 36.7002 -34.2002 36.7002 -55.1006c0 -20.8994 -10.8994 -55.0996 -36.7002 -55.0996c-25.7998 0 -36.6992 34.2002 -36.6992 55.0996c0 20.9004 10.8994 55.1006 36.6992 55.1006z" />
    <glyph glyph-name="maxcdn" unicode="&#xf136;" horiz-adv-x="512" 
d="M461.1 5.2998h-97.3994l51.8994 242.7c2.30078 10.2002 0.900391 19.5 -4.39941 25.7002c-5 6.09961 -13.7002 9.59961 -24.2002 9.59961h-49.2998l-59.5 -278h-97.4004l59.5 278h-83.3994l-59.5 -278h-97.4004l59.5 278l-44.5996 95.4004h372.1
c39.4004 0 75.2998 -16.2998 98.2998 -44.9004c23.2998 -28.5996 31.7998 -67.3994 23.6006 -105.899z" />
    <glyph glyph-name="html5" unicode="&#xf13b;" horiz-adv-x="384" 
d="M0 416h384l-34.9004 -395.8l-157.6 -52.2002l-156.6 52.2002zM308.2 288.1l4.39941 47.7002h-241.1l12.7998 -145.6h166.9l-6 -62.2002l-53.7002 -14.5l-53.5 14.5l-3.5 38.0996h-47.7002l6 -75.7998l98.7002 -27.2998h1.09961v0.299805l97.9004 27l13.5996 148.4h-175.6
l-4.09961 49.3994h183.8z" />
    <glyph glyph-name="css3" unicode="&#xf13c;" horiz-adv-x="512" 
d="M480 416l-64 -368l-223.3 -80l-192.7 80l19.5996 94.7998h82l-8 -40.5996l116.4 -44.4004l134.1 44.4004l18.8008 97.0996h-333.4l16 82h333.7l10.5 52.7002h-333.4l16.2998 82h407.4z" />
    <glyph glyph-name="btc" unicode="&#xf15a;" horiz-adv-x="384" 
d="M310.204 205.362c46.0059 -11.0283 74.9971 -38.4443 69.3262 -99.8906c-7.24805 -76.5723 -61.5967 -97.0547 -142.896 -101.467v-68.0049h-48.5273v66.7451c-12.29 0 -25.21 0 -38.4443 0.314453v-67.0596h-48.5283v68.0049s-8.88867 0.31543 -97.3701 0.31543
l9.76758 57.666c34.7305 -0.614258 50.3301 -3.4209 53.2549 16.0703v217.43c-4.60645 24.5664 -24.709 22.1045 -63.0234 21.4268v51.6777c58.748 -0.275391 79.5283 -0.539062 97.3701 0v79.4092h48.5283v-77.833c12.9189 0.31543 25.8389 0.629883 38.4443 0.629883
v77.2031h48.5273v-79.4092c62.3926 -5.35547 109.492 -24.5781 114.851 -81.9287c4.09668 -41.9102 -13.5508 -67.1201 -41.2803 -81.2998zM150.608 313.447v-96.7402c27.416 0 113.126 -6.30273 113.126 48.2119c0 57.0352 -85.7109 48.5283 -113.126 48.5283z
M150.608 61.6709c32.7715 0 133.126 -6.93262 133.127 53.2529c0 62.3936 -100.355 53.2549 -133.127 53.2549v-106.508z" />
    <glyph glyph-name="youtube" unicode="&#xf167;" horiz-adv-x="576" 
d="M549.655 323.917c11.4121 -42.8672 11.4121 -132.305 11.4121 -132.305s0 -89.4385 -11.4121 -132.306c-6.28125 -23.6494 -24.7871 -41.5 -48.2842 -47.8203c-42.5908 -11.4863 -213.371 -11.4863 -213.371 -11.4863s-170.78 0 -213.371 11.4863
c-23.4971 6.32031 -42.0029 24.1709 -48.2842 47.8203c-11.4121 42.8672 -11.4121 132.306 -11.4121 132.306s0 89.4375 11.4121 132.305c6.28125 23.6504 24.7871 42.2754 48.2842 48.5967c42.5908 11.4863 213.371 11.4863 213.371 11.4863s170.781 0 213.371 -11.4863
c23.4971 -6.32031 42.0029 -24.9463 48.2842 -48.5967zM232.145 110.409l142.739 81.2012l-142.739 81.2051v-162.406z" />
    <glyph glyph-name="xing" unicode="&#xf168;" horiz-adv-x="384" 
d="M162.7 238c-1.7998 -3.2998 -25.2002 -44.4004 -70.1006 -123.5c-4.89941 -8.2998 -10.7998 -12.5 -17.6992 -12.5h-65.1006c-7.7002 0 -12.0996 7.5 -8.5 14.4004l69 121.3c0.200195 0 0.200195 0.0996094 0 0.299805l-43.8994 75.5996
c-4.30078 7.80078 0.299805 14.1006 8.5 14.1006h65.0996c7.2998 0 13.2998 -4.10059 18 -12.2002zM382.6 401.9l-144 -253v-0.300781l91.6006 -166.6c3.89941 -7.09961 0.200195 -14.0996 -8.5 -14.0996h-65.2002c-7.59961 0 -13.5996 4 -18 12.1992l-92.4004 168.5
c3.30078 5.80078 51.5 90.8008 144.801 255.2c4.59961 8.10059 10.3994 12.2002 17.5 12.2002h65.6992c8 0 12.3008 -6.7002 8.5 -14.0996z" />
    <glyph glyph-name="xing-square" unicode="&#xf169;" 
d="M400 416c26.5 0 48 -21.5 48 -48v-352c0 -26.5 -21.5 -48 -48 -48h-352c-26.5 0 -48 21.5 -48 48v352c0 26.5 21.5 48 48 48h352zM140.4 127.8c4.89941 0 9.09961 2.90039 12.5996 9.10059c32.0996 56.5 48.7998 85.8994 50.0996 88.1992l-31.8994 55.3008
c-3.40039 5.7998 -7.7002 8.69922 -12.9004 8.69922h-46.5996c-5.7998 0 -9 -4.5 -6 -10.0996l31.3994 -54c0.100586 -0.0996094 0.100586 -0.200195 0 -0.200195l-49.2998 -86.7002c-2.7002 -5 0.5 -10.2998 6 -10.2998h46.6006zM360.1 341.9
c2.80078 5.2998 -0.299805 10.0996 -6 10h-46.8994c-5.10059 0 -9.2002 -2.90039 -12.5 -8.7002c-66.6006 -117.4 -101.101 -178.2 -103.4 -182.3l66 -120.301c3.2002 -5.7998 7.40039 -8.69922 12.9004 -8.69922h46.5996c6.10059 0 8.7998 5 6 10.0996l-65.5 119v0.200195z
" />
    <glyph glyph-name="dropbox" unicode="&#xf16b;" horiz-adv-x="528" 
d="M264.4 331.7l-132 -84.2998l132 -84.3008l-132 -84.2998l-132.4 85.1006l132.3 84.2998l-132.3 83.5l132.3 84.2998zM131.6 52.2998l132 84.2998l132 -84.2998l-132 -84.2998zM264.4 163.9l132 84.2998l-132 83.5996l131.3 84.2002l132.3 -84.2998l-132.3 -84.2998
l132.3 -84.2002l-132.3 -84.2998z" />
    <glyph glyph-name="stack-overflow" unicode="&#xf16c;" horiz-adv-x="384" 
d="M290.7 137l-8.2002 -39l-195.7 41l8.2002 39.2998zM341.7 224l-25.5 -30.7998l-153.5 128.3l25.5 30.7998zM310.5 184.3l-16.7998 -36.2998l-181.2 84.5l16.7002 36.5zM262 416l119.3 -160.3l-32 -24l-119.3 160.3zM282.5 88v-39.7002h-200v39.7002h200zM322.2 8v120h40
v-160h-359.5v160h40v-120h279.5z" />
    <glyph glyph-name="instagram" unicode="&#xf16d;" 
d="M224.1 307c63.6006 0 114.9 -51.2998 114.9 -114.9c0 -63.5996 -51.2998 -114.899 -114.9 -114.899c-63.5996 0 -114.899 51.2998 -114.899 114.899c0 63.6006 51.2998 114.9 114.899 114.9zM224.1 117.4c41.1006 0 74.7002 33.5 74.7002 74.6992
c0 41.2002 -33.5 74.7002 -74.7002 74.7002c-41.1992 0 -74.6992 -33.5 -74.6992 -74.7002c0 -41.1992 33.5996 -74.6992 74.6992 -74.6992zM370.5 311.7c0 -14.9004 -12 -26.7998 -26.7998 -26.7998c-14.9004 0 -26.7998 12 -26.7998 26.7998s12 26.7998 26.7998 26.7998
s26.7998 -12 26.7998 -26.7998zM446.6 284.5c2.10059 -37 2.10059 -147.8 0 -184.8c-1.7998 -35.9004 -10 -67.7002 -36.1992 -93.9004c-26.2002 -26.2998 -58 -34.5 -93.9004 -36.2002c-37 -2.09961 -147.9 -2.09961 -184.9 0
c-35.8994 1.80078 -67.5996 10 -93.8994 36.2002s-34.5 58 -36.2002 93.9004c-2.09961 37 -2.09961 147.899 0 184.899c1.7998 35.9004 9.90039 67.7002 36.2002 93.9004s58.0996 34.4004 93.8994 36.0996c37 2.10059 147.9 2.10059 184.9 0
c35.9004 -1.7998 67.7002 -10 93.9004 -36.1992c26.2998 -26.2002 34.5 -58 36.1992 -93.9004zM398.8 60c11.7002 29.4004 9 99.5 9 132.1c0 32.6006 2.7002 102.601 -9 132.101c-7.89941 19.7002 -23 34.7998 -42.5996 42.5996c-29.4004 11.6006 -99.5 9 -132.101 9
c-32.5996 0 -102.6 2.7002 -132.1 -9c-19.7002 -7.89941 -34.7998 -23 -42.5996 -42.5996c-11.6006 -29.4004 -9 -99.5 -9 -132.101c0 -32.5996 -2.7002 -102.6 9 -132.1c7.89941 -19.7002 23 -34.7998 42.5996 -42.5996c29.4004 -11.6006 99.5 -9 132.1 -9
c32.6006 0 102.601 -2.7002 132.101 9c19.7002 7.89941 34.7998 23 42.5996 42.5996z" />
    <glyph glyph-name="flickr" unicode="&#xf16e;" 
d="M400 416c26.5 0 48 -21.5 48 -48v-352c0 -26.5 -21.5 -48 -48 -48h-352c-26.5 0 -48 21.5 -48 48v352c0 26.5 21.5 48 48 48h352zM144.5 129c35.0996 0 63.5 28.4004 63.5 63.5s-28.4004 63.5 -63.5 63.5s-63.5 -28.4004 -63.5 -63.5s28.4004 -63.5 63.5 -63.5z
M303.5 129c35.0996 0 63.5 28.4004 63.5 63.5s-28.4004 63.5 -63.5 63.5s-63.5 -28.4004 -63.5 -63.5s28.4004 -63.5 63.5 -63.5z" />
    <glyph glyph-name="adn" unicode="&#xf170;" horiz-adv-x="496" 
d="M248 280.5l64.9004 -98.7998h-129.801zM496 192c0 -136.9 -111.1 -248 -248 -248s-248 111.1 -248 248s111.1 248 248 248s248 -111.1 248 -248zM396.2 109.3l-148.2 223.2l-148.2 -223.2h30.4004l33.5996 51.7002h168.601l33.5996 -51.7002h30.2002z" />
    <glyph glyph-name="bitbucket" unicode="&#xf171;" horiz-adv-x="512" 
d="M22.2002 416l466.8 -0.200195c0.776367 -0.0107422 2.03027 -0.100586 2.7998 -0.200195c7.39648 -1.21875 13.3984 -8.29102 13.3984 -15.7871c0 -0.697266 -0.0888672 -1.82324 -0.198242 -2.5127l-67.9004 -416.8
c-1.2168 -7.39746 -8.29004 -13.4014 -15.7871 -13.4014c-0.0585938 0 -0.154297 0.000976562 -0.212891 0.000976562h-325.699c-10.1016 0.0820312 -19.6445 8.23535 -21.3008 18.2002l-67.8994 412.101c-0.0966797 0.769531 -0.186523 2.02344 -0.200195 2.7998
c0.108398 8.72168 7.27539 15.8008 15.999 15.8008c0.0556641 0 0.145508 0 0.201172 -0.000976562zM308.1 118.2l25.2002 147h-157.3l28.0996 -147h104z" />
    <glyph glyph-name="tumblr" unicode="&#xf173;" horiz-adv-x="320" 
d="M309.8 -32.2998c-13.5996 -14.5 -50 -31.7002 -97.3994 -31.7002c-120.801 0 -147 88.7998 -147 140.6v144h-47.5c-5.5 0 -10 4.5 -10 10v68c0 7.2002 4.5 13.6006 11.2998 16c62 21.8008 81.5 76 84.2998 117.101c0.799805 11 6.5 16.2998 16.0996 16.2998h70.9004
c5.5 0 10 -4.5 10 -10v-115.2h83c5.5 0 10 -4.39941 10 -9.89941v-81.7002c0 -5.5 -4.5 -10 -10 -10h-83.4004v-133.2c0 -34.2002 23.7002 -53.5996 68 -35.7998c4.80078 1.89941 9 3.2002 12.7002 2.2002c3.5 -0.900391 5.7998 -3.40039 7.40039 -7.90039l22 -64.2998
c1.7998 -5 3.2998 -10.6006 -0.400391 -14.5z" />
    <glyph glyph-name="tumblr-square" unicode="&#xf174;" 
d="M400 416c26.5 0 48 -21.5 48 -48v-352c0 -26.5 -21.5 -48 -48 -48h-352c-26.5 0 -48 21.5 -48 48v352c0 26.5 21.5 48 48 48h352zM317.7 51.7998c2.2998 2.40039 1.2998 5.90039 0.299805 9.10059l-13.7998 40.1992c-1 2.80078 -2.40039 4.40039 -4.60059 4.90039
c-2.39941 0.599609 -5 -0.200195 -8 -1.40039c-27.6992 -11.0996 -42.5 1 -42.5 22.4004v83.2998h52.1006c3.39941 0 6.2002 2.7998 6.2002 6.2002v51.0996c0 3.40039 -2.80078 6.2002 -6.2002 6.2002h-51.9004v72c0 3.40039 -2.7998 6.2002 -6.2002 6.2002h-44.2998
c-5.89941 0 -9.5 -3.2998 -10 -10.2002c-1.7998 -25.7002 -13.8994 -59.5 -52.7002 -73.2002c-4.2998 -1.5 -7.09961 -5.5 -7.09961 -10v-42.5c0 -3.39941 2.7998 -6.19922 6.2002 -6.19922h29.7002v-90c0 -32.4004 16.3994 -87.9004 91.8994 -87.9004
c29.7002 0 52.4004 10.7002 60.9004 19.7998z" />
    <glyph glyph-name="apple" unicode="&#xf179;" horiz-adv-x="384" 
d="M318.7 179.3c0 -1.89941 -3.5 -61.2002 61.7002 -91.8994c-12.2002 -36.8008 -54 -118.601 -102.601 -119.301c-28.0996 0 -44.5996 17.9004 -76.3994 17.9004c-32.8008 0 -50.6006 -17.2998 -75.8008 -17.9004c-48.1992 -1.5 -94.3994 88.5 -107.199 125.2
c-9.60059 27.9336 -14.4004 55 -14.4004 81.2002c0 88.7002 59.2998 132.3 115.1 133.2c27 0 61.4004 -19.7002 76.4004 -19.7002c14.2002 0 53 23.5 88.5 20.7002c37.5 -2.90039 65.9004 -17.7002 84.7002 -44.6006c-33.6006 -20.3994 -50.2002 -48.0996 -50 -84.7998z
M262.1 343.5c-19.5996 -22.9004 -43.3994 -36.2998 -69.5 -34.2998c-2.19922 27.5996 8.10059 52.0996 25.6006 71.8994c15.8994 18.5 43.7998 33.5 67.8994 34.9004c0.800781 -10.5996 3.30078 -40.0996 -24 -72.5z" />
    <glyph glyph-name="windows" unicode="&#xf17a;" 
d="M0 354.3l183.6 25.2998v-177.399h-183.6v152.1zM0 29.7002v149.899h183.6v-175.199zM203.8 1.7002v177.899h244.2v-211.6zM203.8 382.3l244.2 33.7002v-213.8h-244.2v180.1z" />
    <glyph glyph-name="android" unicode="&#xf17b;" 
d="M89.5996 243.5v-115.8c0 -15.4004 -12.0996 -27.7002 -27.5 -27.7002c-15.2998 0 -30.0996 12.4004 -30.0996 27.7002v115.8c0 15.0996 14.7998 27.5 30.0996 27.5c15.1006 0 27.5 -12.4004 27.5 -27.5zM100.4 86.5v179.4h247.3v-179.4
c0 -16.4004 -13.2002 -29.5996 -29.4004 -29.5996h-20.2002v-61.1006c0 -36.7998 -55.5 -36.7002 -55.5 0v61.1006h-37.1992v-61.1006c0 -36.5996 -55.2002 -36.8994 -55.2002 0l-0.299805 61.1006h-19.9004c-16.4004 0 -29.5996 13.1992 -29.5996 29.5996zM348.4 275.6
h-249.101c0 42.8008 25.6006 80 63.6006 99.4004l-19.1006 35.2998c-2.7998 4.90039 4.2998 8 6.7002 3.7998l19.4004 -35.5996c34.8994 15.5 75 14.7002 108.3 0l19.2998 35.5c2.5 4.2998 9.5 1.09961 6.7002 -3.7998l-19.1006 -35.2002
c37.7002 -19.4004 63.3008 -56.5996 63.3008 -99.4004zM177.7 331.1c0 5.7002 -4.60059 10.5 -10.5 10.5c-5.7002 0 -10.2002 -4.7998 -10.2002 -10.5c0 -5.69922 4.59961 -10.5 10.2002 -10.5c5.89941 0 10.5 4.80078 10.5 10.5zM291.1 331.1
c0 5.7002 -4.59961 10.5 -10.1992 10.5c-5.90039 0 -10.5 -4.7998 -10.5 -10.5c0 -5.69922 4.59961 -10.5 10.5 -10.5c5.59961 0 10.1992 4.80078 10.1992 10.5zM385.9 271c15.2998 0 30.0996 -12.0996 30.0996 -27.5v-115.8
c0 -15.2998 -14.7002 -27.7002 -30.0996 -27.7002c-15.1006 0 -27.5 12.2998 -27.5 27.7002v115.8c0 15.4004 12.3994 27.5 27.5 27.5z" />
    <glyph glyph-name="linux" unicode="&#xf17c;" 
d="M220.8 324.7c-1.09961 0.599609 -3.09961 0.399414 -3.39941 1.7002c-0.200195 0.399414 0.199219 0.899414 0.599609 1.09961c1.59961 0.900391 3.7998 0.599609 5.5 -0.0996094c1.2998 -0.600586 3.40039 -1.5 3.2002 -2.90039
c-0.100586 -1.09961 -1.7998 -1.5 -2.90039 -1.5c-1.2002 0 -2 1.2002 -3 1.7002zM198.9 323c-1 -0.0996094 -2.7002 0.400391 -2.80078 1.40039c-0.199219 1.39941 1.90039 2.2998 3.2002 2.89941c1.7002 0.700195 3.90039 1 5.5 0.100586
c0.400391 -0.200195 0.799805 -0.700195 0.600586 -1.10059c-0.400391 -1.2002 -2.40039 -1 -3.5 -1.59961c-1 -0.5 -1.80078 -1.7002 -3 -1.7002zM420 44.2002c11.0996 -12.4004 15.9004 -21.5 15.5 -29.7002c-0.5 -8.2002 -6.5 -13.7998 -13.9004 -18.2998
c-14.8994 -9 -37.2998 -15.7998 -50.8994 -32.2002c-14.2002 -16.9004 -31.7002 -26.5996 -48.2998 -27.9004c-16.5 -1.2998 -32 6.30078 -40.3008 23v0.100586c-1.09961 2.09961 -1.89941 4.39941 -2.5 6.7002c-21.5 -1.2002 -40.1992 5.2998 -55.0996 4.09961
c-22 -1.2002 -35.7998 -6.5 -48.2998 -6.59961c-4.7998 -10.6006 -14.2998 -17.6006 -25.9004 -20.2002c-16 -3.7002 -36.0996 0 -55.8994 10.3994c-18.5 9.80078 -42 8.90039 -59.3008 12.5c-8.69922 1.80078 -16.2998 5 -20.0996 12.3008
c-3.7002 7.2998 -3 17.2998 2.2002 31.6992c1.7002 5.10059 0.399414 12.7002 -0.799805 20.8008c-0.600586 3.89941 -1.2002 7.89941 -1.2002 11.7998c0 4.2998 0.700195 8.5 2.7998 12.3994c4.5 8.5 11.7998 12.1006 18.5 14.5c6.7002 2.40039 12.7998 4 17 8.30078
c5.2002 5.5 10.0996 14.3994 16.5996 20.1992c-2.59961 17.2002 0.200195 35.4004 6.2002 53.3008c12.6006 37.8994 39.2002 74.1992 58.1006 96.6992c16.0996 22.9004 20.7998 41.3008 22.5 64.7002c1.09961 31.7998 -24.5 135.4 77.8994 135.2
c80.9004 -0.0996094 76.2998 -85.4004 75.7998 -131.3c-0.299805 -30.1006 16.3008 -50.5 33.4004 -72c15.2002 -18 35.0996 -44.2998 46.5 -74.4004c9.2998 -24.5996 12.9004 -51.7998 3.7002 -79.0996c1.39941 -0.5 2.7998 -1.2002 4.09961 -2
c1.40039 -0.799805 2.7002 -1.7998 4 -2.90039c6.60059 -5.59961 8.7002 -14.2998 10.5 -22.3994c1.90039 -8.10059 3.60059 -15.7002 7.2002 -19.7002zM223.7 360.7c-3.2002 -7.2002 -3.90039 -14.9004 -2.90039 -21.7998c3.60059 -0.900391 8.90039 -2.40039 13 -4.40039
c-2.09961 12.2002 4.5 23.5 11.7998 23c8.90039 -0.299805 13.9004 -15.5 9.10059 -27.2998c-0.799805 -1.90039 -2.7998 -3.40039 -3.90039 -4.60059c6.7002 -2.2998 11 -4.09961 12.6006 -4.89941c7.89941 9.5 10.7998 26.2002 4.2998 40.3994
c-9.7998 21.4004 -34.2002 21.8008 -44 -0.399414zM183 372.2c-18.9004 0 -24 -37.5 -8.40039 -52.1006c7.80078 5.7002 6.90039 4.7002 5.90039 5.5c-8 6.90039 -6.59961 27.4004 1.7998 28.1006c6.2998 0.5 10.7998 -10.7002 9.60059 -19.6006
c3.09961 2.10059 6.69922 3.60059 10.1992 4.60059c1.7002 19.2998 -9 33.5 -19.0996 33.5zM169.4 311.5c-4.2002 -3.2998 -5.60059 -7.40039 -4.2002 -12.2998c1.5 -4.90039 6.09961 -10.5 14.7002 -15.2998c7.7998 -4.60059 12 -11.5 20 -15
c2.59961 -1.10059 5.69922 -1.90039 9.59961 -2.10059c18.4004 -1.09961 27.0996 11.2998 38.2002 14.9004c11.7002 3.7002 20.0996 11 22.7002 18.0996c3.19922 8.5 -2.10059 14.7002 -10.5 18.2002c-11.3008 4.90039 -16.3008 5.2002 -22.6006 9.2998
c-10.2998 6.60059 -18.7998 8.90039 -25.8994 8.90039c-14.4004 0 -23.2002 -9.7998 -27.9004 -14.2002c-0.5 -0.5 -7.90039 -5.90039 -14.0996 -10.5zM172.7 -22.5c2.09961 20.5 -31.5 49 -41 68.9004l-19.6006 35.5996c-6.7998 9.2002 -13.7998 14.7998 -21.8994 16
c-7.7002 1.2002 -12.6006 -1.40039 -17.7002 -6.90039c-4.7998 -5.09961 -8.7998 -12.2998 -14.2998 -18c-7.7998 -6.5 -9.2998 -6.19922 -19.6006 -9.89941c-6.2998 -2.2002 -11.2998 -4.60059 -14.7998 -11.2998c-2.7002 -5 -2.09961 -12.2002 -0.899414 -20
c1.19922 -7.90039 3 -16.3008 0.599609 -23.9004v-0.200195c-5 -13.7002 -5 -21.7002 -2.59961 -26.3994c7.89941 -15.4004 46.5996 -6.10059 76.5 -21.9004c31.3994 -16.4004 72.5996 -17.0996 75.2998 18zM171.3 3.40039c37.6006 -25.7002 82.2002 -15.7002 114.3 7.19922
c3.2002 11 6.30078 21.3008 6.80078 29c0.799805 15.2002 1.59961 28.7002 4.39941 39.9004c3.10059 12.5996 9.2998 23.0996 21.4004 27.2998c2.2998 21.1006 18.7002 21.1006 38.2998 12.5c18.9004 -8.5 26 -16 22.7998 -26.0996c1 0 2 0.0996094 4.2002 0
c5.2002 16.8994 -14.2998 28 -30.7002 34.7998c2.90039 12 2.40039 24.0996 -0.399414 35.7002c-6 25.2998 -22.6006 47.7998 -35.2002 59c-2.2998 0.0996094 -2.10059 -1.90039 2.59961 -6.5c11.6006 -10.7002 37.1006 -49.2002 23.2998 -84.9004
c-3.89941 1 -7.59961 1.5 -10.8994 1.40039c-5.2998 29.0996 -17.5 53.2002 -23.6006 64.5996c-11.5 21.4004 -29.5 65.2998 -37.1992 95.7002c-4.5 -6.40039 -12.4004 -11.9004 -22.3008 -15c-4.69922 -1.5 -9.69922 -5.5 -15.8994 -9
c-13.9004 -8 -30 -8.7998 -42.4004 1.2002c-4.5 3.59961 -8 7.59961 -12.5996 10.2998c-1.60059 0.900391 -5.10059 3.2998 -6.2002 4.09961c-2 -37.7998 -27.2998 -85.2998 -39.2998 -112.699c-8.2998 -19.7002 -13.2002 -40.8008 -13.7998 -61.5
c-21.8008 29.0996 -5.90039 66.2998 2.59961 82.3994c9.5 17.6006 11 22.5 8.7002 20.7998c-8.60059 -14 -22 -36.2998 -27.2002 -59.1992c-2.7002 -11.9004 -3.2002 -24 0.299805 -35.2002s11.1006 -21.5 24.6006 -29.9004c0 0 24.7998 -14.2998 38.2998 -32.5
c7.39941 -10 9.7002 -18.7002 7.39941 -24.8994c-2.5 -6.7002 -9.59961 -8.90039 -16.6992 -8.90039c4.7998 -6 10.2998 -13 14.3994 -19.5996zM428.7 14.9004c0.299805 5.09961 -3.10059 13 -13.7002 24.5996c-10 11.2998 -7.2002 33.0996 -17.0996 41.5996
c-6.90039 6 -13.6006 5.40039 -22.6006 5.10059c-7.7002 -8.7998 -25.7998 -19.6006 -38.3994 -16.2998c-11.5 2.89941 -18 16.2998 -18.8008 29.5c-0.299805 -0.200195 -0.699219 -0.300781 -1 -0.5c-7.09961 -3.90039 -11.0996 -10.8008 -13.6992 -21.1006
c-2.5 -10.2002 -3.40039 -23.5 -4.2002 -38.7002c-0.700195 -11.7998 -6.2002 -26.3994 -9.90039 -40.5996c-3.5 -13.2002 -5.7998 -25.2002 -1.09961 -36.2998c7.2002 -14.5 19.5 -20.4004 33.7002 -19.2998c14.1992 1.09961 30.3994 9.7998 43.5996 25.5
c22 26.5996 62.2998 29.6992 63.2002 46.5zM173.3 299.3c-3.5 2.7998 -3.09961 6.60059 -1.7002 6.5c2.40039 -0.299805 2.80078 -3.5 4.30078 -4.89941c2 -1.90039 4.59961 -4.40039 7.69922 -6.90039c6.2002 -4.90039 14.5 -9.7002 24.9004 -9.7002
s22.5 6 29.9004 10.2002c4.19922 2.40039 9.5 6.59961 13.8994 9.7998c3.40039 2.5 3.2002 5.40039 6 5.10059c2.7998 -0.300781 0.799805 -3.2002 -3.09961 -6.60059c-3.90039 -3.39941 -9.90039 -7.7998 -14.7998 -10.3994
c-9.30078 -4.90039 -20.2002 -10.8008 -31.8008 -10.8008c-11.5 0 -20.6992 5.40039 -27.2998 10.6006c-3.2998 2.59961 -6 5.2002 -8 7.09961z" />
    <glyph glyph-name="dribbble" unicode="&#xf17d;" horiz-adv-x="512" 
d="M256 440c136.748 0 248 -111.252 248 -248s-111.252 -248 -248 -248s-248 111.252 -248 248s111.252 248 248 248zM419.97 325.634c-4.46582 -6.04102 -39.9629 -51.5459 -118.284 -83.5225c7.43652 -15.2217 12.8652 -27.5732 18.6172 -41.6143
c70.4844 8.86426 140.519 -5.34082 147.502 -6.81836c-0.46582 49.998 -18.332 95.9092 -47.835 131.955zM396.421 350.13c-52.0947 46.2188 -122.885 63.6816 -190.061 47.4893c5.85449 -7.83984 44.3281 -60.2324 79.04 -124.008
c75.3232 28.2324 107.211 71.0918 111.021 76.5186zM165.941 383.38c-59.2637 -27.9531 -103.562 -82.585 -117.298 -148.318c9.47461 -0.125 96.7471 -0.503906 195.834 25.8096c-35.0986 62.3926 -72.9512 114.85 -78.5361 122.509zM44.1699 191.677
c0 -54.4072 20.624 -104.082 54.457 -141.636c34.3369 58.7793 103.932 120.731 180.531 142.306c-5.31738 12.0342 -11.1104 24.0811 -17.1738 35.9492c-105.786 -31.6592 -208.438 -30.3359 -217.706 -30.1455c-0.0654297 -2.15137 -0.108398 -4.30762 -0.108398 -6.47363
zM125.977 24.5645c62.7539 -48.9355 144.656 -56.8955 212.769 -27.8828c-3.15039 18.585 -15.4492 83.3555 -45.1895 160.639c-85.4004 -29.1348 -145.452 -87.5234 -167.579 -132.756zM374.357 16.0752c47.5215 32.1338 81.3525 83.0371 90.7949 141.978
c-7.24707 2.28711 -65.5674 19.6816 -131.947 9.05566c27.7061 -76.1367 38.9805 -138.147 41.1523 -151.033z" />
    <glyph glyph-name="skype" unicode="&#xf17e;" 
d="M424.7 148.2c14.5996 -18.9004 23.2998 -42.5 23.2002 -68.1006c0 -61.7998 -50.2002 -112 -112 -112c-25.6006 0 -49.2002 8.7002 -68.2002 23.3008c-14.1006 -3 -28.9004 -4.7002 -43.7998 -4.7002c-113.4 0 -205.301 91.7998 -205.301 205.3
c0 14.9004 1.80078 29.7998 4.7002 43.7998c-14.5996 18.9004 -23.2998 42.5 -23.2998 68.2002c0 61.7998 50.2002 112 112 112c25.7002 0 49.2998 -8.7002 68.2998 -23.4004c14.1006 3 28.9004 4.7002 43.7998 4.7002c113.4 0 205.301 -91.7998 205.301 -205.3
c0 -14.9004 -1.80078 -29.7998 -4.7002 -43.7998zM230.1 56.7002c54.9004 0 112 27.3994 112 86.5c0 50.7998 -49.2998 68.2998 -90.6992 77.5996c-48.3008 11.2002 -69.1006 13.2002 -69.1006 33c0 15.5 16.2998 22.5 42 22.5c45.7998 0 46.7002 -33.5 75 -33.5
c18.9004 0 30.2998 14.9004 30.2998 31.7998c0 33.5 -55.6992 55.4004 -110.8 55.4004c-50.5 0 -109.1 -21.9004 -109.1 -81.0996c0 -65.2002 55.2998 -71.8008 117.8 -87.2002c26 -6.40039 42 -9.2998 42 -28c0 -14.9004 -16.5996 -26.2998 -42.2998 -26.2998
c-54 0 -56.9004 44.8994 -88.1006 44.8994c-20.5 0 -29.5 -14.5996 -29.5 -30.5996c0 -35.7998 54.9004 -65 120.5 -65z" />
    <glyph glyph-name="foursquare" unicode="&#xf180;" horiz-adv-x="368" 
d="M323.1 445c40 0 50.7002 -22.7998 42.2002 -65.2002l-48.5996 -243c-3.7002 -14.5 -9.2002 -39.7002 -44.2998 -39.7002h-83.4004c-3.40039 0 -3.7002 0.300781 -6.7998 -3.09961c0 0 -2.2002 -2.5 -131.101 -151.9
c-10.0996 -11.6992 -26.6992 -9.59961 -32.8994 -7.09961c-6.10059 2.40039 -18.2002 9.7998 -18.2002 30.0996v433.801c0 17.7998 12.4004 46.0996 49.9004 46.0996h273.199zM306.8 371.2c2.10059 9.7998 -5.2998 17.5 -13.5 17.5h-219
c-9.7998 0 -16.5996 -8.90039 -16.5996 -16.6006v-338.8c0 -0.899414 0.899414 -1.2002 1.7998 -0.299805c80.5996 96.9004 89.5 108.3 89.5 108.3c9.2998 10.7998 13 12.6006 26.5 12.6006h73.5c10.0996 0 16 8.59961 16.9004 13.5
c0.899414 5 9.59961 49.8994 11.3994 58.7998c1.7998 9 -6.5 18.2002 -14.7998 18.2002h-90.4004c-12 0 -20.5996 8.59961 -20.5996 20.5996v13c0 12 8.59961 20.2998 20.5996 20.2998h106.4c7.40039 0 15.7002 6.7002 16.9004 13.2002z" />
    <glyph glyph-name="trello" unicode="&#xf181;" 
d="M392.3 416c30.7998 -0.200195 55.7002 -25.2002 55.6006 -56v-336c0 -30.7998 -24.9004 -55.7998 -55.7002 -56h-336.2c-30.9004 0 -56 25.0996 -56 56c0 340 -0.0996094 336 0 336c0 30.9004 25.0996 56 56.0996 56h336.2zM197 76.7002h0.0996094v254.2
c0 14.8994 -12.0996 26.8994 -26.8994 26.8994h-82.9004c-14.8994 0 -26.8994 -12.0996 -26.8994 -26.8994v-254.2c0.0996094 -14.7998 12.1992 -26.7002 27 -26.6006h82.6992c14.8008 0 26.7002 11.9004 26.9004 26.6006zM390.1 188.7v142.1
c0 14.9004 -12.0996 26.9004 -26.8994 26.9004h-81.1006c-14.7998 0 -26.7998 -12.1006 -26.7998 -26.9004v-142.1c0 -14.9004 12.1006 -26.9004 26.9004 -26.9004h81c14.8994 0 26.8994 12.1006 26.8994 26.9004z" />
    <glyph glyph-name="gratipay" unicode="&#xf184;" horiz-adv-x="496" 
d="M248 440c136.9 0 248 -111.1 248 -248s-111.1 -248 -248 -248s-248 111.1 -248 248s111.1 248 248 248zM362.6 213.6c8.80078 12 19.1006 50.4004 -13.7998 72c-27.7002 18.1006 -54.2002 4.2002 -68.0996 -11.8994c-15.1006 -16.9004 -45.7998 -17.9004 -61.7002 0
c-13.9004 16.0996 -40.4004 30 -68.5 11.8994c-32.7002 -21.5996 -22.2998 -60.0996 -13.5996 -72l112.699 -152.699z" />
    <glyph glyph-name="vk" unicode="&#xf189;" horiz-adv-x="576" 
d="M545 330.3c-7.40039 -34.2998 -79.2998 -135.5 -79.4004 -135.6c-6.19922 -10 -8.69922 -15 0 -26.2002c3.40039 -4.7998 79.1006 -76.5996 90.3008 -111.5c4.89941 -16.5996 -3.60059 -25 -20.4004 -25h-58.9004c-22.3994 0 -29 17.9004 -69 57.9004
c-35 33.6992 -50 38.0996 -58.6992 38.0996c-18.8008 0 -15.4004 -6.2998 -15.4004 -73.0996c0 -14.5 -4.59961 -22.9004 -42.0996 -22.9004c-62.4004 0 -131 37.9004 -179.7 107.8c-73.1006 102.4 -93.1006 179.9 -93.1006 195.5c0 8.7998 3.40039 16.7002 20.2002 16.7002
h58.9004c15.0996 0 20.7998 -6.59961 26.5996 -22.9004c28.7998 -84 77.4004 -157.399 97.4004 -157.399c7.5 0 10.8994 3.5 10.8994 22.5v86.7998c-2.19922 40 -23.3994 43.2998 -23.3994 57.5c0 6.5 5.59961 13.5 15 13.5h92.5996
c12.4004 0 16.6006 -6.7002 16.6006 -21.7002v-116.7c0 -12.5 5.69922 -16.8994 9.39941 -16.8994c7.5 0 13.7998 4.39941 27.5 18.0996c42.4004 47.4004 72.4004 120.5 72.4004 120.5c3.7002 8.7998 10.5996 16.7002 25.5996 16.7002h58.9004
c17.7998 0 21.5 -9.2002 17.7998 -21.7002z" />
    <glyph glyph-name="weibo" unicode="&#xf18a;" horiz-adv-x="512" 
d="M407 270.4c7.59961 24 -13.4004 46.7998 -37.4004 41.6992c-22 -4.7998 -28.7998 28.1006 -7.09961 32.8008c50.0996 10.8994 92.2998 -37.1006 76.5 -84.8008c-6.7998 -21.1992 -38.7998 -10.7998 -32 10.3008zM214.8 1.2998c-106.3 0 -214.8 51.4004 -214.8 136.3
c0 44.3008 28 95.4004 76.2998 143.7c99.7002 99.7002 203.2 100.9 173.601 5.7002c-4 -13.0996 12.2998 -5.7002 12.2998 -6c79.5 33.5996 140.5 16.7998 114 -51.4004c-3.7002 -9.39941 1.09961 -10.8994 8.2998 -13.0996c135.7 -42.2998 34.7998 -215.2 -169.7 -215.2z
M358.5 147.6c-5.40039 55.7002 -78.5 94 -163.4 85.7002c-84.7998 -8.59961 -148.8 -60.2998 -143.399 -116c5.39941 -55.7002 78.5 -94 163.399 -85.7002c84.8008 8.60059 148.801 60.3008 143.4 116zM347.9 412.9c102.3 21.5996 189.3 -74.5 157.399 -174.301
c-8.2998 -25 -44.7998 -12.1992 -37.3994 12c23.0996 71.2002 -39.4004 139.2 -111.7 124c-25.1006 -5.39941 -34.2002 32.7002 -8.2998 38.3008zM269.4 101.9c-17.1006 -38.8008 -66.8008 -60 -109.101 -46.3008c-40.7998 13.1006 -58 53.4004 -40.2998 89.7002
c17.7002 35.4004 63.0996 55.4004 103.4 45.1006c42 -10.8008 63.0996 -50.2002 46 -88.5zM183.1 131.9c-12.8994 5.39941 -30 -0.300781 -38 -12.9004c-8.2998 -12.9004 -4.2998 -28 8.60059 -34c13.0996 -6 30.7998 -0.299805 39.0996 12.9004
c8 13.0996 3.7002 28.2998 -9.7002 34zM215.7 145.3c-5.10059 1.7002 -11.4004 -0.599609 -14.2998 -5.39941c-2.90039 -5.10059 -1.40039 -10.6006 3.69922 -12.9004c5.10059 -2 11.7002 0.299805 14.6006 5.40039c2.7998 5.19922 1.09961 10.8994 -4 12.8994z" />
    <glyph glyph-name="renren" unicode="&#xf18b;" horiz-adv-x="512" 
d="M214 278.9c0 -110.4 -61 -205.4 -147.6 -247.4c-36.4004 43.2998 -58.4004 98.7998 -58.4004 159.9c0 122.699 89.0996 224.399 206 244.1v-156.6zM255 -56c-42.9004 0 -83.2998 11 -118.5 30.4004c57.2002 36.0996 103.4 90.6992 118.5 154.6
c15.5 -63.9004 61.7002 -118.5 118.8 -154.7c-35.0996 -19.2998 -75.5 -30.2998 -118.8 -30.2998zM445.6 31.5c-86.5996 42 -147.6 136.9 -147.6 247.4v156.6c116.9 -19.7002 206 -121.4 206 -244.1c0 -61.1006 -22 -116.601 -58.4004 -159.9z" />
    <glyph glyph-name="pagelines" unicode="&#xf18c;" horiz-adv-x="384" 
d="M384 135.3c-55.0996 -136.7 -187.1 -54 -187.1 -54c-40.5 -81.7998 -107.4 -134.399 -184.601 -134.7c-16.0996 0 -16.5996 24.4004 0 24.4004c64.4004 0.299805 120.5 42.7002 157.2 110.1c-41.0996 -15.8994 -118.6 -27.8994 -161.6 82.2002
c109 44.9004 159.1 -11.2002 178.3 -45.5c9.89941 24.4004 17 50.9004 21.5996 79.7002c0 0 -139.7 -21.9004 -149.5 98.0996c119.101 47.9004 152.601 -76.6992 152.601 -76.6992c1.59961 16.6992 3.2998 52.5996 3.2998 53.3994c0 0 -106.3 73.7002 -38.1006 165.2
c124.601 -43 61.4004 -162.4 61.4004 -162.4c0.5 -1.59961 0.5 -23.7998 0 -33.3994c0 0 45.2002 89 136.4 57.5c-4.2002 -134 -141.9 -106.4 -141.9 -106.4c-4.40039 -27.3994 -11.2002 -53.3994 -20 -77.5c0 0 83 91.7998 172 20z" />
    <glyph glyph-name="stack-exchange" unicode="&#xf18d;" 
d="M17.7002 115.7h412.7v-22c0 -37.7002 -29.3008 -68 -65.3008 -68h-19l-86.7998 -89.7002v89.7002h-176.3c-36 0 -65.2998 30.2998 -65.2998 68v22zM17.7002 139.3v85h412.7v-85h-412.7zM17.7002 248.7v85h412.7v-85h-412.7zM365 448
c36 0 65.2998 -30.2998 65.4004 -67.7002v-22.2998h-412.7v22.2998c0 37.4004 29.2998 67.7002 65.2998 67.7002h282z" />
    <glyph glyph-name="vimeo-square" unicode="&#xf194;" 
d="M400 416c26.5 0 48 -21.5 48 -48v-352c0 -26.5 -21.5 -48 -48 -48h-352c-26.5 0 -48 21.5 -48 48v352c0 26.5 21.5 48 48 48h352zM383.8 266.4c1.90039 41.5996 -13.5996 63 -46.5 64c-44.2998 1.39941 -74.3994 -23.6006 -90.0996 -75.1006
c19.5996 8.40039 48.5996 10.6006 45.2002 -22.2002c-0.900391 -11.0996 -8.10059 -27.0996 -21.5 -48.2998c-37.2002 -58.7002 -46.3008 -39.0996 -66.8008 90.5c-5.7998 36.5 -21.0996 53.5 -46 51.1006c-22 -2 -57.1992 -38 -94.0996 -70.4004l15 -19.4004
c14.2998 10.1006 22.7002 15.1006 25.0996 15.1006c20.8008 0 31.5 -54.1006 56.7002 -146.4c12.9004 -34.3994 28.6006 -51.5996 47.2998 -51.5996c30.1006 0 66.9004 28.2998 110.4 84.7998c42.0996 54.0996 63.9004 96.7998 65.2998 127.9z" />
    <glyph glyph-name="slack" unicode="&#xf198;" 
d="M94.1201 132.9c0 -25.9004 -21.1602 -47.0605 -47.0605 -47.0605c-25.8994 0 -47.0596 21.1602 -47.0596 47.0605c0 25.8994 21.1602 47.0596 47.0596 47.0596h47.0605v-47.0596zM117.84 132.9c0 25.8994 21.1602 47.0596 47.0605 47.0596
c25.8994 0 47.0596 -21.1602 47.0596 -47.0596v-117.841c0 -25.8994 -21.1602 -47.0596 -47.0596 -47.0596c-25.9004 0 -47.0605 21.1602 -47.0605 47.0596v117.841zM164.9 321.88c-25.9004 0 -47.0605 21.1602 -47.0605 47.0605c0 25.8994 21.1602 47.0596 47.0605 47.0596
c25.8994 0 47.0596 -21.1602 47.0596 -47.0596v-47.0605h-47.0596zM164.9 298.16c25.8994 0 47.0596 -21.1602 47.0596 -47.0605c0 -25.8994 -21.1602 -47.0596 -47.0596 -47.0596h-117.841c-25.8994 0 -47.0596 21.1602 -47.0596 47.0596
c0 25.9004 21.1602 47.0605 47.0596 47.0605h117.841zM353.88 251.1c0 25.9004 21.1602 47.0605 47.0605 47.0605c25.8994 0 47.0596 -21.1602 47.0596 -47.0605c0 -25.8994 -21.1602 -47.0596 -47.0596 -47.0596h-47.0605v47.0596zM330.16 251.1
c0 -25.8994 -21.1602 -47.0596 -47.0605 -47.0596c-25.8994 0 -47.0596 21.1602 -47.0596 47.0596v117.841c0 25.8994 21.1602 47.0596 47.0596 47.0596c25.9004 0 47.0605 -21.1602 47.0605 -47.0596v-117.841zM283.1 62.1201c25.9004 0 47.0605 -21.1602 47.0605 -47.0605
c0 -25.8994 -21.1602 -47.0596 -47.0605 -47.0596c-25.8994 0 -47.0596 21.1602 -47.0596 47.0596v47.0605h47.0596zM283.1 85.8398c-25.8994 0 -47.0596 21.1602 -47.0596 47.0605c0 25.8994 21.1602 47.0596 47.0596 47.0596h117.841
c25.8994 0 47.0596 -21.1602 47.0596 -47.0596c0 -25.9004 -21.1602 -47.0605 -47.0596 -47.0605h-117.841z" />
    <glyph glyph-name="wordpress" unicode="&#xf19a;" horiz-adv-x="512" 
d="M61.7002 278.6l101.5 -278c-71 34.4004 -119.9 107.2 -119.9 191.4c0 30.9004 6.60059 60.0996 18.4004 86.5996zM399.6 202.7c0 -18.2002 -7 -39.2998 -16 -68.7002l-21.1992 -70.9004l-76.9004 228.7c12.7998 0.700195 24.2998 2 24.2998 2
c11.4004 1.2998 10.1006 18.2002 -1.39941 17.5c0 0 -34.5 -2.7002 -56.7002 -2.7002c-20.9004 0 -56 2.7002 -56 2.7002c-11.4004 0.700195 -12.7998 -16.7998 -1.2998 -17.5c0 0 10.7998 -1.2998 22.2998 -2l33.0996 -90.7998l-46.5996 -139.6l-77.5 230.399
c12.7998 0.700195 24.2998 2 24.2998 2c11.4004 1.2998 10.0996 18.2002 -1.40039 17.5c0 0 -34.5 -2.7002 -56.6992 -2.7002c-4 0 -8.7002 0.100586 -13.7002 0.300781c38.0996 57.7998 103.5 95.8994 177.8 95.8994c55.4004 0 105.8 -21.2002 143.7 -55.8994
c-1 0.0996094 -1.90039 0.199219 -2.7998 0.199219c-20.9004 0 -35.7002 -18.1992 -35.7002 -37.7998c0 -17.5 10.0996 -32.3994 20.8994 -49.8994c8.10059 -14.2002 17.5 -32.4004 17.5 -58.7002zM259.7 173.4l65.3994 -179.2c0.400391 -1 0.900391 -2 1.5 -2.90039
c-22.0996 -7.7998 -45.7998 -12.0996 -70.5996 -12.0996c-20.9004 0 -41 3.09961 -60.0996 8.7002zM442.7 294.1c16.5996 -30.2998 26 -65.0996 26 -102.1c0 -78.5 -42.5 -147 -105.8 -183.9l65 187.9c12.1992 30.4004 16.1992 54.5996 16.1992 76.2002
c0 7.89941 -0.5 15.0996 -1.39941 21.8994zM504 192c0 -136.8 -111.3 -248 -248 -248c-136.8 0 -248 111.3 -248 248c0 136.8 111.2 248 248 248c136.7 0 248 -111.2 248 -248zM492.6 192c0 130.5 -106.199 236.6 -236.6 236.6c-130.5 0 -236.6 -106.1 -236.6 -236.6
s106.199 -236.6 236.6 -236.6c130.5 0 236.6 106.1 236.6 236.6z" />
    <glyph glyph-name="openid" unicode="&#xf19b;" 
d="M271.5 16l-68 -32c-115 10.2998 -203.5 71.5 -203.5 145.8c0 71.5 82.5 131 191.7 144.3v-43c-71.5 -12.5 -124 -53 -124 -101.3c0 -51 58.5 -93.2998 135.7 -103v340l68 33.2002v-384h0.0996094zM448 157l-131.3 28.5l36.7998 20.7002c-19.5 11.5 -43.5 20 -70 24.7998
v43c46.2002 -5.5 87.7002 -19.5 120.3 -39.2998l35 19.7998z" />
    <glyph glyph-name="yahoo" unicode="&#xf19e;" 
d="M252 156l4 -220c-12.7002 2.2002 -23.5 3.90039 -32.2998 3.90039c-8.40039 0 -19.2002 -1.7002 -32.2998 -3.90039l4 220c-55 94.7998 -110.4 196.8 -174 292c11.8994 -3.09961 23 -3.90039 33.1992 -3.90039c9 0 20.4004 0.800781 34.1006 3.90039
c40.8994 -72.2002 82.0996 -138.7 135 -225.5c37.2998 61.5996 91.0996 144.1 134.899 225.5c11.1006 -2.90039 22 -3.90039 32.9004 -3.90039c11.5 0 23.2002 1 35 3.90039c-34.4004 -47.9004 -131.6 -216.9 -174.5 -292z" />
    <glyph glyph-name="google" unicode="&#xf1a0;" horiz-adv-x="488" 
d="M488 186.2c0 -141.5 -96.9004 -242.2 -240 -242.2c-137.2 0 -248 110.8 -248 248s110.8 248 248 248c66.7998 0 123 -24.5 166.3 -64.9004l-67.5 -64.8994c-88.2998 85.2002 -252.5 21.2002 -252.5 -118.2c0 -86.5 69.1006 -156.6 153.7 -156.6
c98.2002 0 135 70.3994 140.8 106.899h-140.8v85.2998h236.1c2.30078 -12.6992 3.90039 -24.8994 3.90039 -41.3994z" />
    <glyph glyph-name="reddit" unicode="&#xf1a1;" horiz-adv-x="512" 
d="M201.5 142.5c-13.7998 0 -24.9004 11.0996 -24.9004 24.5996c0 13.8008 11.1006 24.9004 24.9004 24.9004c13.5996 0 24.5996 -11.0996 24.5996 -24.9004c0 -13.5996 -11.0996 -24.5996 -24.5996 -24.5996zM504 192c0 -137 -111 -248 -248 -248s-248 111 -248 248
s111 248 248 248s248 -111 248 -248zM371.7 233.2c-9.40039 0 -17.7002 -3.90039 -23.7998 -10c-22.4004 15.5 -52.6006 25.5 -86.1006 26.5996l17.4004 78.2998l55.3994 -12.5c0 -13.5996 11.1006 -24.5996 24.6006 -24.5996c13.7998 0 24.8994 11.2998 24.8994 24.9004
c0 13.5996 -11.0996 24.8994 -24.8994 24.8994c-9.7002 0 -18 -5.7998 -22.1006 -13.7998l-61.1992 13.5996c-3 0.800781 -6.10059 -1.39941 -6.90039 -4.39941l-19.0996 -86.4004c-33.2002 -1.39941 -63.1006 -11.2998 -85.5 -26.7998
c-6.10059 6.40039 -14.7002 10.2002 -24.1006 10.2002c-34.8994 0 -46.2998 -46.9004 -14.3994 -62.7998c-1.10059 -5 -1.7002 -10.2002 -1.7002 -15.5c0 -52.6006 59.2002 -95.2002 132 -95.2002c73.0996 0 132.3 42.5996 132.3 95.2002
c0 5.2998 -0.599609 10.7998 -1.90039 15.7998c31.3008 16 19.8008 62.5 -14.8994 62.5zM302.8 117c2.2002 2.2002 6.10059 2.2002 8.2998 0c2.5 -2.5 2.5 -6.40039 0 -8.59961c-22.8994 -22.8008 -87.3994 -22.8008 -110.199 0c-2.5 2.19922 -2.5 6.09961 0 8.59961
c2.19922 2.2002 6.09961 2.2002 8.2998 0c17.5 -17.9004 75.3994 -18.2002 93.5996 0zM310.5 192c13.9004 0 24.9004 -11.0996 24.9004 -24.9004c0 -13.5 -11.1006 -24.5996 -24.9004 -24.5996c-13.5 0 -24.5996 11 -24.5996 24.5996c0 13.8008 11 24.9004 24.5996 24.9004z
" />
    <glyph glyph-name="reddit-square" unicode="&#xf1a2;" 
d="M283.2 102.5c2.7002 -2.7002 2.7002 -6.7998 0 -9.2002c-24.5 -24.5 -93.7998 -24.5996 -118.4 0c-2.7002 2.40039 -2.7002 6.5 0 9.2002c2.40039 2.40039 6.5 2.40039 8.90039 0c18.7002 -19.2002 81 -19.5996 100.5 0c2.39941 2.2998 6.59961 2.2998 9 0zM191.9 156.3
c0 -14.5996 -11.9004 -26.5 -26.5 -26.5c-14.9004 0 -26.8008 11.9004 -26.8008 26.5c0 14.9004 11.9004 26.7998 26.8008 26.7998c14.5996 0 26.5 -11.8994 26.5 -26.7998zM282.6 183.1c14.9004 0 26.8008 -11.8994 26.8008 -26.7998
c0 -14.5996 -11.9004 -26.5 -26.8008 -26.5c-14.5996 0 -26.5 11.9004 -26.5 26.5c0 14.9004 11.9004 26.7998 26.5 26.7998zM448 368v-352c0 -26.5 -21.5 -48 -48 -48h-352c-26.5 0 -48 21.5 -48 48v352c0 26.5 21.5 48 48 48h352c26.5 0 48 -21.5 48 -48zM348.3 227.4
c-10.0996 0 -19 -4.2002 -25.5996 -10.7002c-24.1006 16.7002 -56.5 27.3994 -92.5 28.5996l18.7002 84.2002l59.5 -13.4004c0 -14.5996 11.8994 -26.5 26.5 -26.5c14.8994 0 26.7998 12.2002 26.7998 26.8008c0 14.5996 -11.9004 26.7998 -26.7998 26.7998
c-10.4004 0 -19.3008 -6.2002 -23.8008 -14.9004l-65.6992 14.6006c-3.30078 0.899414 -6.5 -1.5 -7.40039 -4.80078l-20.5 -92.7998c-35.7002 -1.5 -67.7998 -12.2002 -91.9004 -28.8994c-6.5 6.7998 -15.7998 11 -25.8994 11c-37.5 0 -49.7998 -50.4004 -15.5 -67.5
c-1.2002 -5.40039 -1.7998 -11 -1.7998 -16.7002c0 -56.5 63.6992 -102.3 141.899 -102.3c78.5 0 142.2 45.7998 142.2 102.3c0 5.7002 -0.599609 11.5996 -2.09961 17c33.5996 17.2002 21.1992 67.2002 -16.1006 67.2002z" />
    <glyph glyph-name="stumbleupon-circle" unicode="&#xf1a3;" horiz-adv-x="496" 
d="M256 440c137 0 248 -111 248 -248s-111 -248 -248 -248s-248 111 -248 248s111 248 248 248zM256 262.5c9.7998 0 17.7998 -8 17.7002 -17.5996v-20.6006l22.8994 -10.7002l34.1006 10.1006v23.7002c0 40.2998 -34 72.5996 -74.7002 72.5996
c-40.5 0 -74.7002 -32.0996 -74.7002 -72.0996v-108.4c0 -9.90039 -8 -17.7998 -17.7998 -17.7998s-17.7998 7.7998 -17.7998 17.7998v45.7998h-57.2998v-46.5c0 -41.3994 33.5 -74.8994 74.8994 -74.8994c41 0 74.9004 33 74.9004 73.8994v106.9
c0 9.7998 8 17.7998 17.7998 17.7998zM423.6 138.9c0 0 0 0.5 0.100586 46.3994h-57.2998v-48c0 -9.7002 -8 -17.5996 -17.8008 -17.5996c-9.7998 0 -17.7998 7.7998 -17.7998 17.5996v47.1006l-34.0996 -10.1006l-22.9004 10.7002v-46.7998
c0 -41 33.7002 -74.2002 74.9004 -74.2002c41.3994 0 74.8994 33.5 74.8994 74.9004z" />
    <glyph glyph-name="stumbleupon" unicode="&#xf1a4;" horiz-adv-x="512" 
d="M502.9 182v-69.7002c0 -62.0996 -50.3008 -112.399 -112.4 -112.399c-61.7998 0 -112.4 49.7998 -112.4 111.3v70.2002l34.3008 -16l51.0996 15.1992v-70.5996c0 -14.7002 12 -26.5 26.7002 -26.5s26.7998 11.7998 26.7998 26.5v72h85.9004zM278.2 240.2v30.8994
c0 14.7002 -12 26.7002 -26.7002 26.7002s-26.7002 -12 -26.7002 -26.7002v-160.3c0 -61.2998 -50.7998 -110.8 -112.399 -110.8c-62.1006 0 -112.4 50.2998 -112.4 112.3v69.7002h86v-68.5996c0 -14.9004 12 -26.7002 26.7002 -26.7002s26.7002 11.7998 26.7002 26.7002
v162.399c0 60 51.2998 108.2 112.1 108.2c61 0 112.1 -48.5 112.1 -109v-35.5996l-51.0996 -15.2002z" />
    <glyph glyph-name="delicious" unicode="&#xf1a5;" 
d="M446.5 380c1 -3.7998 1.5 -7.90039 1.59961 -12v-352.1c0 -26.5 -21.5 -48 -48 -48h-352c-4.09961 0 -8.19922 0.5 -12 1.5c-7.69922 2 -14.5996 5.7998 -20.2998 11c-1.2002 1.09961 -2.2998 2.19922 -3.2998 3.2998c-5.2002 5.7002 -9 12.5996 -11 20.2998
c-1 3.7998 -1.5 7.90039 -1.5 12v352c0 26.5 21.5 48 48 47.9004h352c4.09961 0 8.2002 -0.5 12 -1.5c1.90039 -0.400391 3.7002 -1 5.40039 -1.7002c1.89941 -0.700195 3.69922 -1.5 5.5 -2.5c1.39941 -0.700195 2.69922 -1.5 4 -2.40039
c1.09961 -0.799805 2.19922 -1.59961 3.2998 -2.5c2.5 -2 4.7998 -4.2998 6.89941 -6.7998c1.7002 -2.09961 3.30078 -4.5 4.7002 -6.90039c1.2998 -2.2998 2.40039 -4.59961 3.2998 -7.09961c0.5 -1.5 1 -3 1.40039 -4.5zM416 16v176h-192v192h-176
c-8.7998 0 -16 -7.2002 -16 -16v-176h192v-192h176c8.7998 0 16 7.2002 16 16z" />
    <glyph glyph-name="digg" unicode="&#xf1a6;" horiz-adv-x="512" 
d="M81.7002 275.7v76.2998h51v-250.7h-132.7v174.4h81.7002zM81.7002 142.3v92.2998h-30.7998v-92.2998h30.7998zM378.9 275.7h133.1v-243.7h-133.1v40.7998h81.7998v28.5h-81.7998v174.4zM460.7 142.3v92.2998h-30.7998v-92.2998h30.7998zM225.1 101.3v174.4h133.301
v-243.7h-133.301v40.7998h82.1006v28.5h-82.1006zM276.3 234.6v-92.2998h30.7998v92.2998h-30.7998zM153.3 352h51.2998v-51h-51.2998v51zM153.3 275.7h51.2998v-174.4h-51.2998v174.4z" />
    <glyph glyph-name="pied-piper-pp" unicode="&#xf1a7;" 
d="M205.3 273.4c0 -21.1006 -14.2002 -38.1006 -31.7002 -38.1006c-7.09961 0 -12.7998 1.2002 -17.1992 3.7002v68c4.39941 2.7002 10.0996 4.2002 17.1992 4.2002c17.5 0 31.7002 -16.9004 31.7002 -37.7998zM257.9 206.4c17.3994 0 31.6992 -17 31.6992 -38.1006
c0 -20.8994 -14.2998 -37.7998 -31.6992 -37.7998c-7.10059 0 -12.8008 1.2002 -17.2002 3.7002v68c4.39941 2.7002 10.0996 4.2002 17.2002 4.2002zM448 368v-352c0 -26.5 -21.5 -48 -48 -48h-352c-26.5 0 -48 21.5 -48 48v352c0 26.5 21.5 48 48 48h352
c26.5 0 48 -21.5 48 -48zM185 192.9c41 0 74.2002 35.5996 74.2002 79.5996s-33.2002 79.5996 -74.2002 79.5996c-12 0 -24.0996 -3.19922 -34.5996 -8.7998h-45.7002v-206.3l51.7998 10.0996v50.6006c8.59961 -3.10059 18.0996 -4.7998 28.5 -4.7998zM343.4 167.6
c0 44 -33.2002 79.6006 -73.9004 79.6006c-3.2002 0 -6.40039 -0.200195 -9.59961 -0.700195c-3.7002 -12.5 -10.1006 -23.7998 -19.2002 -33.4004c-13.7998 -15 -32.2002 -23.7998 -51.7998 -24.7998v-156.3l51.7998 10.0996v50.6006
c8.59961 -3.2002 18.2002 -4.7002 28.7002 -4.7002c40.7998 0 74 35.5996 74 79.5996z" />
    <glyph glyph-name="pied-piper-alt" unicode="&#xf1a8;" horiz-adv-x="576" 
d="M244 202l-27.7002 -5.7002l-1.7002 4.90039c6.7002 0.5 12.7002 3.7002 19.3008 3.7002c3.7998 0 6.89941 -0.900391 10.0996 -2.90039zM379.9 4.09961c9.5 0 28.1992 -45.0996 33 -55.0996c-35.9004 -13.4004 -70.3008 -15.9004 -106 -9.7998l-6.90039 45.0996
c15.7998 10.2998 60.9004 19.7998 79.9004 19.7998zM340.8 271c-7.59961 3.5 -63.8994 6.40039 -98.7998 -10c6.2998 11.7998 13.2002 17 25.9004 21.7998c27.2998 10.2998 40.1992 30.5 58.8994 51.1006c11.9004 -8.40039 12 -24.6006 31.6006 -23v-21.8008
l6.2998 -0.299805c37.3994 14.4004 74.7002 30.2002 106.6 54.6006c48.2998 36.7998 52.9004 50 81.2998 100l2 2.59961c-0.599609 -14.0996 -6.2998 -27.2998 -12.3994 -39.9004c-30.5 -63.7998 -78.7002 -100.3 -146.8 -116.699
c-12.4004 -2.90039 -26.4004 -3.2002 -37.6006 -8.90039c1.40039 -9.7998 13.2002 -18.0996 13.2002 -23c0 -3.40039 -5.5 -7.2002 -7.5 -8.59961c-11.2002 12.8994 -16.0996 19.2998 -22.7002 22.0996zM555.5 448l-0.299805 -1.40039l-0.600586 -0.599609
l0.300781 0.900391zM496.3 65.9004c20.1006 -34.2002 43.7002 -54.3008 72.7002 -79.9004c-31 -19.2998 -70.4004 -32.2002 -103.5 -47.2002c-55.2002 46.2998 -23 229.9 -111.5 229.9c-3.5 -0.700195 -2.40039 -0.299805 -4.59961 -1.7002
c1.09961 -1.40039 2.59961 -2.90039 3.69922 -4c23.9004 -20.0996 33.4004 -24.4004 34.8008 -58.5996l0.299805 -9.5c0.799805 -21.6006 -5.5 -42.5 -9.7998 -63.5c-25.9004 0.699219 -51.2002 -11 -77.9004 -2.90039c-0.700195 5.90039 -1.09961 30.9004 0.299805 41.0996
c1.40039 9.5 33.6006 29.9004 33 43.7002c-5.5 0.600586 -9.2002 -2.59961 -12.3994 -6.89941c-13.3008 -19.5 -47.2002 -41.9004 -71.3008 -41.9004c-16.5996 0 -56.2998 71.5 -76.3994 85.9004c-3.2002 2.2998 -5.2002 5.39941 -7.7998 8.59961
c-16.1006 -3.7998 -139.4 -32.2002 -147.4 -32.2002c-6 0 -11.5 4.90039 -11.5 10.9004c0 5.5 3.40039 10.7002 8.90039 11.7998l139.6 30.4004c-9.5 17.1992 12.2998 17.5 21.5 20.0996c3.2002 0.799805 6.2998 4 9.5 4c6.2998 0 11.7998 -8.90039 13.7998 -14.0996
c6.2998 1.39941 45.7002 10.5996 49.4004 10.5996c15.2002 0 15.8994 -20.0996 2.89941 -22.7002l-52.2998 -11.5l-0.299805 -4.59961c-0.299805 -10.1006 45.4004 -60.1006 53.4004 -60.1006c18.0996 0 54.8994 41.7002 54.8994 60.1006
c0 30.7002 -42.7998 12.5996 -42.7998 33.5996c0 3.5 1.2002 6.60059 2.90039 9.7998l-19.5 5.5c13.0996 13.6006 13.7998 31.7002 10.8994 50.3008c14.7002 2.89941 26.7002 4.59961 41.4004 4.59961c56.8994 0 45.7002 -8.59961 65.5 -54.2998l14.3994 7.2002
c-2.2998 -34.2002 -36.1992 -17.5 -35.0996 -31l0.299805 -6c74.7002 2.89941 116.101 -58.6006 150 -115.5zM300.1 19.7998h8.90039l2.90039 -23.7998l-11.8008 -3.40039v27.2002zM231.4 170.2l13.7998 3.5l31.2998 -50.9004l-21 -13.7998zM315.8 15.2998
c22.6006 2.5 32.7002 6.2998 59.5 6.2998c0.299805 -1.39941 0.900391 -3.19922 0.900391 -4.59961c0 -7.5 -49.4004 -12.5996 -58.4004 -14.0996z" />
    <glyph glyph-name="drupal" unicode="&#xf1a9;" 
d="M319.5 333.3c13.5 -8.2998 96.5 -67 96.5 -179.3c0 -112 -88.5 -186 -190.2 -186c-102 0 -193.8 80.2998 -193.8 189.5c0 109 85 167.5 100.8 175.8c18.7002 10.1006 32.2002 15.2998 53.5 32.2998c10.5 8.30078 19.2998 20.2002 22 49.5
c15.2002 -18.2998 33.5 -39.5 46.5 -48.2998c21.2002 -14 42.5 -19.5 64.7002 -33.5zM322 7.7002c4.2002 4.2002 1.90039 13.0996 -4.2002 8.5c-8.5 -6.2998 -27.5 -14 -54.5 -14c-34.5 0 -51.5 13.2998 -51.5 13.2998c-6.2002 0 -11.2998 -7.2002 -6.5 -12
c26.6006 -24.5 96.6006 -15.9004 116.7 4.2002zM267.5 60.2998c-6.5 -2.7002 -28.4004 -16.7998 -22.4004 -25c2.40039 -3.2998 5.2002 -1.2998 12.2002 4.7002c7.2002 5.7998 12 11 26.7002 11c25.2998 0 18.0996 -19.9004 26.5 -15.7002
c9.90039 4.90039 -2.09961 20.9004 -6.2002 23.7002c-7.7998 5.09961 -28.0996 4.90039 -36.7998 1.2998zM360 43c39.0996 -3.2998 64.5 106 15.7998 106c-20 0 -60.5 -41.5 -81.7998 -41.7998c-24.7002 -0.5 -59 49 -108.5 48.5
c-66.4004 -0.400391 -90.5996 -78.6006 -51.7998 -105.2c57.2002 -38.7002 130.399 42.9004 161.3 42c19.5 -0.700195 49.7998 -48.5 65 -49.5z" />
    <glyph glyph-name="joomla" unicode="&#xf1aa;" 
d="M0.599609 355.9c0 33.2998 26.8008 60.0996 59.8008 60.0996c30 0 54.5 -21.9004 59.1992 -50.2002c32.6006 7.60059 67.1006 -0.599609 96.5 -30l-44.2998 -44.2998c-20.5 20.5 -42.5996 16.2998 -55.3994 3.5c-14.3008 -14.2998 -14.3008 -37.9004 0 -52.2002
l99.5 -99.5l-44 -44.2998c-87.7002 87.2002 -49.7002 49.7002 -99.8008 99.7002c-26.7998 26.5 -35 64.7998 -24.7998 98.8994c-26.8994 5.80078 -46.7002 29.7002 -46.7002 58.3008zM130.1 239.5c28.5 28.4004 81.3008 80.7998 99.6006 99.9004
c26.5996 26.5996 64.5 35 98.2998 25.0996c4.09961 29.0996 29.2002 51.5996 59.5 51.5996c33 0 59.7998 -26.8994 59.7998 -60.0996c0 -30.2998 -22.7002 -55.4004 -51.8994 -59.5c9.59961 -33.5996 2.2998 -70 -28.9004 -101.2l-44 44.2998
c20.5 20.4004 16.2998 42.6006 3.5 55.4004c-14.2998 14.2998 -37.5996 14.2998 -51.9004 0c-10 -10.0996 -89.6992 -89.7998 -99.6992 -99.7998zM396.4 87.2998c29.0996 -4.09961 51.5996 -28.8994 51.5996 -59.0996c0 -33.2998 -26.7998 -60.1006 -59.7998 -60.1006
c-29.2002 0 -53.4004 20.7002 -58.9004 48.1006c-34.7002 -10.7998 -75.0996 -2.2002 -102.7 28l44 44.2998c20.4004 -20.5 42.6006 -16.2998 55.4004 -3.5c14.2998 14.2998 14.2998 37.5996 0 51.9004l-99.7002 99.6992l44.2998 44.3008
c104.5 -104.4 87.7002 -87.5 99.5 -99.7002c25.4004 -25.4004 34.5 -61.2002 26.3008 -93.9004zM312.1 140.4c-87.2998 -87.3008 -67.3994 -67.7002 -99.5 -99.7002c-25.6992 -25.4004 -61.5 -34.2002 -94.1992 -26c-6.10059 -26.9004 -30 -46.7002 -58.6006 -46.7002
c-33 0 -59.7998 26.7998 -59.7998 60.0996c0 28.3008 19.5 52.2002 46.2002 58.2002c-8.5 33.1006 -0.700195 68.1006 29.5 98.2998l44 -44.2998c-20.1006 -20.0996 -16.2998 -42 -3.2002 -55.3994c14.2998 -14.3008 37.5996 -14.3008 51.9004 0
c49.2998 49.3994 12.6992 13.3994 99.6992 99.7998z" />
    <glyph glyph-name="behance" unicode="&#xf1b4;" horiz-adv-x="576" 
d="M232 210.8c43.5996 -12.2998 64.7002 -45.2002 64.7002 -89.7002c0 -72 -60.5 -102.899 -124.9 -102.899h-171.8v354.399h167.1c60.7002 0 113.301 -17.1992 113.301 -87.7998c0 -35.7998 -16.6006 -58.7998 -48.4004 -74zM77.9004 312.1v-82.6992h79
c27.7998 0 47.5 12.0996 47.5 42.1992c0 32.6006 -25.3008 40.5 -53.4004 40.5h-73.0996zM161.2 78.4004c31.7002 0 57.5996 11.1992 57.5996 47c0 36.2998 -21.7002 50.5996 -56 50.5996h-84.8994v-97.5996h83.2998zM519.7 319.1h-143.7v34.9004h143.7v-34.9004zM576 142.8
c0 -4.5 -0.299805 -9 -0.599609 -13.2002h-185.101c0 -41.0996 21.7002 -65.2998 63 -65.2998c21.4004 0 49 11.6006 55.7002 33.5h62.2002c-19.1006 -58.7002 -58.7998 -86.2998 -120.101 -86.2998c-81 0 -131.3 54.7998 -131.3 134.7c0 77 53.1006 135.8 131.3 135.8
c80.5 0 124.9 -63.2998 124.9 -139.2zM390.4 174h114.699c-3 34 -20.7998 54.7998 -56.1992 54.7998c-33.8008 0 -56.2002 -21.0996 -58.5 -54.7998z" />
    <glyph glyph-name="behance-square" unicode="&#xf1b5;" 
d="M186.5 155c0 -19.2998 -14 -25.4004 -31.2002 -25.4004h-45.0996v52.9004h46c18.5996 -0.0996094 30.2998 -7.7998 30.2998 -27.5zM178.8 237.3c0 -16.2998 -10.7002 -22.8994 -25.7998 -22.8994h-42.7002v44.7998h39.6006c15.1992 0 28.8994 -4.2002 28.8994 -21.9004z
M311.1 214.1c19.2002 0 28.8008 -11.1992 30.5 -29.6992h-62.1992c1.19922 18.2998 13.3994 29.6992 31.6992 29.6992zM448 368v-352c0 -26.5 -21.5 -48 -48 -48h-352c-26.5 0 -48 21.5 -48 48v352c0 26.5 21.5 48 48 48h352c26.5 0 48 -21.5 48 -48zM271.7 263h77.7998
v18.9004h-77.7998v-18.9004zM228.7 152.7c0 24.0996 -11.4004 44.8994 -35 51.5996c17.2002 8.2002 26.2002 17.7002 26.2002 37c0 38.2002 -28.5 47.5 -61.4004 47.5h-90.5v-192h93.0996c34.9004 0.200195 67.6006 16.9004 67.6006 55.9004zM380 167.5
c0 41.0996 -24.0996 75.4004 -67.5996 75.4004c-42.4004 0 -71.1006 -31.8008 -71.1006 -73.6006c0 -43.2998 27.2998 -73 71.1006 -73c33.1992 0 54.6992 14.9004 65.0996 46.7998h-33.7002c-3.7002 -11.8994 -18.5996 -18.0996 -30.2002 -18.0996
c-22.3994 0 -34.0996 13.0996 -34.0996 35.2998h100.2c0.0996094 2.2998 0.299805 4.7998 0.299805 7.2002z" />
    <glyph glyph-name="steam" unicode="&#xf1b6;" horiz-adv-x="496" 
d="M496 192c0 -137 -111.2 -248 -248.4 -248c-113.8 0 -209.6 76.2998 -239 180.4l95.2002 -39.3008c6.40039 -32.0996 34.9004 -56.3994 68.9004 -56.3994c39.2002 0 71.8994 32.3994 70.2002 73.5l84.5 60.2002c52.0996 -1.30078 95.7998 40.8994 95.7998 93.5
c0 51.5996 -42 93.5 -93.7002 93.5s-93.7002 -42 -93.7002 -93.5v-1.2002l-59.2002 -85.7002c-15.5 0.900391 -30.6992 -3.40039 -43.5 -12.0996l-133.1 55c10.2002 127.699 117.1 228.1 247.6 228.1c137.2 0 248.4 -111 248.4 -248zM155.7 63.7002
c19.7998 -8.2002 42.5 1.09961 50.7998 21c8.2998 19.7998 -1.09961 42.5 -20.9004 50.7002l-31.5 13c12.2002 4.59961 26 4.7998 38.9004 -0.600586c13 -5.39941 23.0996 -15.5996 28.5 -28.5996s5.2998 -27.2998 -0.0996094 -40.2998
c-11.2002 -26.8008 -42.1006 -39.6006 -69 -28.4004c-10.2119 4.26953 -22.3975 15.8281 -27.2002 25.7998zM329.5 193.6c-34.4004 0 -62.4004 28 -62.4004 62.3008c0 34.2998 28 62.2998 62.4004 62.2998s62.4004 -28 62.4004 -62.2998
c0 -34.3008 -27.9004 -62.3008 -62.4004 -62.3008zM329.6 209.2c25.9004 0 46.9004 21 46.9004 46.7998c0 25.9004 -21 46.7998 -46.9004 46.7998c-25.8994 0 -46.8994 -21 -46.8994 -46.7998c0.0996094 -25.7998 21.0996 -46.7998 46.8994 -46.7998z" />
    <glyph glyph-name="steam-square" unicode="&#xf1b7;" 
d="M185.2 91.5c7.7002 18.5 -1 39.7002 -19.6006 47.4004l-29.5 12.1992c11.4004 4.30078 24.3008 4.5 36.4004 -0.5c12.2002 -5.09961 21.5996 -14.5996 26.7002 -26.6992c5 -12.2002 5 -25.6006 -0.100586 -37.7002c-10.5 -25.1006 -39.3994 -37 -64.5996 -26.5
c-11.5996 4.7998 -20.4004 13.5996 -25.4004 24.2002l28.5 -11.8008c18.6006 -7.7998 39.9004 0.900391 47.6006 19.4004zM400 416c26.5 0 48 -21.5 48 -48v-352c0 -26.5 -21.5 -48 -48 -48h-352c-26.5 0 -48 21.5 -48 48v112.8l89.0996 -36.8994
c6 -30 32.7002 -52.7002 64.5 -52.7002c36.6006 0 67.3008 30.2998 65.7002 68.7998l79 56.2998c48.7002 -1.2002 89.6006 38.2998 89.6006 87.5c0 48.2002 -39.3008 87.5 -87.6006 87.5s-87.5996 -39.2998 -87.5996 -87.5v-1.09961l-55.4004 -80.2002
c-14.5 0.799805 -28.7002 -3.09961 -40.7002 -11.2998l-116.6 48.0996v160.7c0 26.5 21.5 48 48 48h352zM300.3 193.5c-32.2002 0 -58.3994 26.0996 -58.3994 58.2998s26.1992 58.2998 58.3994 58.2998s58.4004 -26.1992 58.4004 -58.2998
c0 -32.0996 -26.2002 -58.2998 -58.4004 -58.2998zM300.4 208.1c24.1992 0 43.8994 19.6006 43.8994 43.8008c0 24.1992 -19.5996 43.7998 -43.8994 43.7998c-24.2002 0 -43.9004 -19.6006 -43.9004 -43.7998c0 -24.2002 19.7002 -43.8008 43.9004 -43.8008z" />
    <glyph glyph-name="spotify" unicode="&#xf1bc;" horiz-adv-x="496" 
d="M248 440c136.9 0 248 -111.1 248 -248s-111.1 -248 -248 -248s-248 111.1 -248 248s111.1 248 248 248zM348.7 75.0996c8.09961 0 15.2002 6.30078 15.2002 15.4004s-3.60059 12.5996 -9.7002 16.5c-71.4004 42.7002 -155.101 44.2998 -237 26.2002
c-7.5 -1.60059 -13.6006 -6.5 -13.6006 -16.7998c0 -8.10059 6.10059 -15.8008 15.8008 -15.8008c2.89941 0 8 1.60059 11.8994 2.60059c71.7002 14.7002 144.3 13.0996 206.7 -24.5c3.90039 -2.2998 6.5 -3.60059 10.7002 -3.60059zM375.6 140.7
c10.9004 0 19.3008 8.7002 19.4004 19.5c0 8.7002 -3.2002 14.8994 -11.2998 19.7002c-49.4004 29.3994 -112.101 45.5 -177 45.5c-41.6006 0 -70 -5.80078 -97.7998 -13.6006c-10.3008 -2.89941 -15.5 -10 -15.5 -20.7002c0 -10.6992 8.69922 -19.3994 19.3994 -19.3994
c4.5 0 7.10059 1.2998 11.9004 2.59961c82.8994 22.5 176.1 7.60059 238.6 -29.3994c3.60059 -1.90039 7.10059 -4.2002 12.2998 -4.2002zM406.6 216.9c12.2002 0 23.2002 9.69922 23.2002 23.2998c0 11.8994 -5.09961 18.0996 -12.8994 22.5996
c-55.9004 32.6006 -132.4 47.7998 -205.4 47.7998c-42.9004 0 -82.2998 -4.89941 -117.5 -15.1992c-9 -2.60059 -17.4004 -10.3008 -17.4004 -23.9004c0 -13.2998 10.1006 -23.5996 23.3008 -23.5996c4.7998 0 9.2998 1.59961 12.8994 2.59961
c82.4004 23 209.7 12.7998 280.9 -29.7002c4.5 -2.59961 7.7002 -3.89941 12.8994 -3.89941z" />
    <glyph glyph-name="deviantart" unicode="&#xf1bd;" horiz-adv-x="320" 
d="M320 354.8l-98.2002 -179.1l7.40039 -9.5h90.7998v-127.7h-160.9l-13.5 -9.2002l-43.6992 -84c-0.300781 0 -8.60059 -8.59961 -9.2002 -9.2002h-92.7002v93.2002l93.2002 179.4l-7.40039 9.2002h-85.7998v127.6h156l13.5 9.2002l43.7002 84
c0.299805 0 8.59961 8.59961 9.2002 9.2002h97.5996v-93.1006z" />
    <glyph glyph-name="soundcloud" unicode="&#xf1be;" horiz-adv-x="640" 
d="M111.4 191.7l5.7998 -65l-5.7998 -68.2998c-0.300781 -2.5 -2.2002 -4.40039 -4.40039 -4.40039s-4.2002 1.90039 -4.2002 4.40039l-5.59961 68.2998l5.59961 65c0 2.2002 1.90039 4.2002 4.2002 4.2002c2.2002 0 4.09961 -2 4.40039 -4.2002zM132.8 237.3
c2.5 0 4.7002 -2.2002 4.7002 -5l5.7998 -105.6l-5.7998 -68.2998c0 -2.80078 -2.2002 -5 -4.7002 -5c-2.7998 0 -4.7002 2.19922 -5 5l-5 68.2998l5 105.6c0.299805 2.7998 2.2002 5 5 5zM158.3 261.4c2.7998 0 5.2998 -2.2002 5.2998 -5.30078l5.30078 -130
l-5.30078 -67.7998c0 -3.09961 -2.5 -5.2998 -5.2998 -5.2998c-3.09961 0 -5.2998 2.2002 -5.59961 5.2998l-4.40039 67.7998l4.40039 130c0.299805 3.10059 2.5 5.30078 5.59961 5.30078zM7.2002 164.8c1.39941 0 2.2002 -1.09961 2.5 -2.5l5.59961 -35.5996l-5.59961 -35
c-0.299805 -1.40039 -1.10059 -2.5 -2.5 -2.5c-1.40039 0 -2.2002 1.09961 -2.5 2.5l-4.7002 35l4.7002 35.5996c0.299805 1.40039 1.09961 2.5 2.5 2.5zM30.7998 186.7c1.40039 0 2.5 -1.10059 2.7998 -2.5l7.2002 -57.5l-7.2002 -56.4004
c-0.299805 -1.39941 -1.39941 -2.5 -2.7998 -2.5c-1.39941 0 -2.5 1.10059 -2.5 2.7998l-6.39941 56.1006l6.39941 57.5c0 1.39941 1.10059 2.5 2.5 2.5zM56.0996 198.1c1.7002 0 3.10059 -1.39941 3.10059 -3.2998l6.89941 -68.0996l-6.89941 -65.7998
c0 -1.7002 -1.40039 -3.10059 -3.10059 -3.10059c-1.59961 0 -3 1.40039 -3.2998 3.10059l-5.7998 65.7998l5.7998 68.0996c0.200195 1.90039 1.60059 3.2998 3.2998 3.2998zM81.4004 200.3c1.89941 0 3.59961 -1.39941 3.89941 -3.59961l6.40039 -70l-6.40039 -67.7998
c-0.299805 -2.2002 -2 -3.60059 -3.89941 -3.60059c-1.90039 0 -3.60059 1.40039 -3.60059 3.60059l-5.7998 67.7998l5.7998 70c0 2.2002 1.7002 3.59961 3.60059 3.59961zM322.8 311.2c2.5 -1.40039 4.10059 -4.2002 4.5 -7.2002l3.90039 -177.5l-3.90039 -64.2002
c0 -4.7002 -3.89941 -8.59961 -8.59961 -8.59961s-8.60059 3.89941 -8.90039 8.59961l-1.7002 31.7002l-1.69922 32.5l3.2998 176.7v0.799805c0.200195 2.5 1.39941 5 3.2998 6.7002c1.40039 1.09961 3.40039 1.89941 5.59961 1.89941
c1.40039 0 3.10059 -0.599609 4.2002 -1.39941zM296.1 295.9c2.2002 -1.40039 3.60059 -3.90039 3.90039 -6.7002l3.2998 -162.8l-3.09961 -58.6006l-0.299805 -6.7002c0 -2.2998 -0.800781 -4.19922 -2.5 -5.59961c-1.40039 -1.40039 -3.40039 -2.5 -5.60059 -2.5
c-2.5 0 -4.7002 1.2002 -6.39941 3.09961c-1.10059 1.40039 -1.7002 3 -1.7002 4.7002v0.299805c-3.10059 65.3008 -3.10059 65.6006 -3.10059 65.6006l2.80078 160.8l0.299805 1.7002c0 2.7998 1.39941 5.2998 3.59961 6.7002
c1.2998 0.799805 2.7998 1.39941 4.40039 1.39941c1.59961 0 3 -0.599609 4.39941 -1.39941zM184.7 273.4c3.39941 0 5.89941 -2.80078 6.09961 -6.10059l5 -140.6l-5 -67.2002c-0.299805 -3.2998 -2.7998 -5.7998 -6.09961 -5.7998c-3 0 -5.5 2.5 -5.7998 5.7998
l-4.40039 67.2002l4.40039 140.6c0 3.2998 2.69922 6.10059 5.7998 6.10059zM561.4 210.6c43.2998 0 78.5996 -35.2998 78.5 -78.8994c0 -43.2998 -35.3008 -78.2998 -78.6006 -78.2998h-218.3c-4.7002 0.599609 -8.59961 4.19922 -8.59961 9.19922v249.7
c0 4.7998 1.69922 7 7.7998 9.2002c15.2998 6.09961 32.5 9.40039 50.2998 9.40039c72.5 0 131.9 -55.6006 138.3 -126.4c9.5 3.90039 19.7998 6.09961 30.6006 6.09961zM264.7 270.9c4.2002 0 7.2002 -3.30078 7.5 -7.80078l3.89941 -136.699l-3.89941 -65.6006
c0 -4.2002 -3.2998 -7.5 -7.5 -7.5s-7.5 3.2998 -7.7998 7.5l-3.30078 65.6006l3.30078 136.699c0.299805 4.5 3.59961 7.80078 7.7998 7.80078zM211.1 278.7c3.60059 0 6.40039 -3.10059 6.7002 -6.7002l4.40039 -145.3l-4.40039 -66.9004
c-0.299805 -3.59961 -3.09961 -6.39941 -6.7002 -6.39941c-3.2998 0 -6.09961 2.7998 -6.39941 6.39941l-3.90039 66.9004l3.90039 145.3c0 3.59961 3.09961 6.7002 6.39941 6.7002zM237.8 275.3c3.90039 0 6.90039 -3 6.90039 -6.89941l4.2002 -141.7l-4.2002 -66.4004
c0 -3.7998 -3.10059 -6.89941 -6.90039 -6.89941s-6.59961 3 -6.89941 6.89941l-3.90039 66.4004l3.90039 141.7c0 3.7998 3 6.89941 6.89941 6.89941z" />
    <glyph glyph-name="vine" unicode="&#xf1ca;" horiz-adv-x="384" 
d="M384 193.3v-52.0996c-18.4004 -4.2002 -36.9004 -6.10059 -52.0996 -6.10059c-36.9004 -77.3994 -103 -143.8 -125.101 -156.199c-14 -7.90039 -27.0996 -8.40039 -42.7002 0.799805c-27.0996 16.2998 -129.899 100.6 -164.1 365.6h74.5
c18.7002 -159.1 64.5 -240.7 114.8 -301.8c27.9004 27.9004 54.7998 65.0996 75.6006 106.9c-49.8008 25.2998 -80.1006 80.8994 -80.1006 145.6c0 65.5996 37.7002 115.1 102.2 115.1c114.9 0 106.2 -127.899 81.5996 -181.5c0 0 -46.3994 -9.19922 -63.5 20.5
c3.40039 11.3008 8.2002 30.8008 8.2002 48.5c0 31.3008 -11.2998 46.6006 -28.3994 46.6006c-18.2002 0 -30.8008 -17.1006 -30.8008 -50c0.100586 -79.2002 59.4004 -118.7 129.9 -101.9z" />
    <glyph glyph-name="codepen" unicode="&#xf1cb;" horiz-adv-x="512" 
d="M502.285 288.296c6.00098 -3.99902 9.71484 -11.1426 9.71582 -18.2852v-155.999c0 -7.14258 -3.71484 -14.2871 -9.71484 -18.2861l-234 -156.021c-8.06055 -4.95996 -16.584 -4.91504 -24.5713 0l-234 156.021c-6.00098 4 -9.71484 11.1436 -9.71484 18.2861v155.999
c0 7.14258 3.71387 14.2861 9.71387 18.2852l234 156c8.06055 4.95996 16.584 4.91504 24.5713 0zM278 384.869v-102.572l95.4287 -63.7148l76.8574 51.4287zM234 384.869l-172.286 -114.858l76.8574 -51.4287l95.4287 63.7148v102.572zM44 228.868v-73.7139
l55.1426 36.8564zM234 -0.84668v102.571l-95.4287 63.7158l-76.8574 -51.4297zM256 140.011l77.7148 52l-77.7148 52l-77.7148 -52zM278 -0.84668l172.286 114.857l-76.8574 51.4297l-95.4287 -63.7158v-102.571zM468 155.154v73.7139l-55.1426 -36.8574z" />
    <glyph glyph-name="jsfiddle" unicode="&#xf1cc;" horiz-adv-x="576" 
d="M510.634 210.538c45.6885 -25.334 68.3721 -74.5605 56.832 -122.634c-12.1035 -50.4199 -55.5479 -86.6592 -108.212 -87.293c-84.0303 -1.01172 -168.079 -0.458984 -252.12 -0.480469c-30.3223 -0.00683594 -60.668 -0.492188 -90.959 0.539062
c-48.0938 1.63672 -91.7764 35.8643 -105.607 81.4326c-14.1289 46.5508 2.18945 94.623 41.9014 124.615c2.54688 1.92383 4.86914 6.52051 4.51465 9.54492c-3.74609 31.8604 7.14453 57.6709 32.6758 76.4082c26.2822 19.2881 55.2285 21.5879 85.3311 9.16699
c2.36621 -0.975586 4.63965 -2.17773 7.82422 -3.68555c16.5215 27.5332 38.1221 48.6523 65.4922 63.9023c92.8594 51.7402 210.954 8.31152 246.85 -91.6455c5.55762 -15.4766 6.74512 -32.6074 9.09668 -49.0947c0.716797 -5.02832 1.6543 -8.15527 6.38086 -10.7764z
M531.741 53.6582c39.3135 48.375 22.418 117.668 -35.1426 144.497c-7.43555 3.46582 -9.72559 7.74414 -9.84766 15.8936c-1.87012 125.129 -132.78 187.063 -230.24 132.697c-26.1133 -14.5674 -46.4492 -34.8955 -60.6709 -61.2939
c-7.59082 -14.0908 -11.9287 -7.97754 -22.1982 -2.52734c-24.6113 13.0635 -49.0469 12.6406 -72.0332 -3.08301c-21.9678 -15.0244 -31.9102 -36.6201 -26.4199 -62.9805c2.4082 -11.5703 -0.914062 -17.0635 -10.0967 -23.1367
c-38.1895 -25.2578 -53.0879 -74.8604 -34.1855 -116.105c18.4355 -40.2295 51.3135 -59.6631 95.1748 -59.9951c0.700195 -0.00488281 163.728 -0.545898 163.728 0.154297c56.8857 0 113.778 -0.551758 170.652 0.229492
c28.9375 0.397461 53.0498 13.2178 71.2803 35.6504zM443.952 134.157c-5.84863 -31.1572 -34.6221 -55.0967 -66.666 -55.0957c-16.9531 0.00195312 -32.0586 6.5459 -44.0791 17.7051c-27.6973 25.7139 -71.1406 74.9805 -95.9375 93.3877
c-20.0557 14.8877 -41.9893 12.333 -60.2715 -3.78223c-49.9961 -44.0713 15.8594 -121.775 67.0625 -77.1885c4.54883 3.95996 7.84082 9.54297 12.7441 12.8447c8.18457 5.50879 20.7666 0.883789 13.168 -10.6221c-17.3574 -26.2842 -49.3301 -38.1973 -78.8623 -29.3008
c-28.8975 8.70312 -48.8408 35.9678 -48.626 70.1787c1.22461 22.4844 12.3633 43.0596 35.4141 55.9648c22.5742 12.6377 46.3682 13.1455 66.9902 -2.47363c50.791 -38.4756 75.5781 -81.7451 107.296 -101.245c24.5586 -15.0996 54.2549 -7.36328 68.8232 17.5059
c28.8301 49.209 -34.5918 105.016 -78.8682 63.46c-3.98828 -3.74414 -6.91699 -8.93164 -11.4092 -11.7197c-10.9756 -6.81152 -17.333 4.1123 -12.8096 10.3525c20.7031 28.5537 50.4639 40.4404 83.2715 28.2139c31.4287 -11.7139 49.1074 -44.3662 42.7598 -78.1855z
" />
    <glyph glyph-name="rebel" unicode="&#xf1d0;" horiz-adv-x="512" 
d="M256.5 -56c-139.3 0 -247.5 116.2 -243.3 254.1c2.7998 79.2002 43.2002 152.2 116.5 200.4c0.299805 0 1.89941 0.599609 1.09961 -0.799805c-5.7998 -5.5 -111.3 -129.8 -14.0996 -226.4c49.7998 -49.5 90 -2.5 90 -2.5c38.5 50.1006 -0.600586 125.9 -0.600586 125.9
c-10 24.8994 -45.6992 40.0996 -45.6992 40.0996l28.7998 31.7998c24.3994 -10.5 43.2002 -38.6992 43.2002 -38.6992c0.799805 29.5996 -21.9004 61.3994 -21.9004 61.3994l44.5996 50.7002l44.3008 -50.0996c-20.5 -28.8008 -21.9004 -62.6006 -21.9004 -62.6006
c13.7998 23 43.5 39.2998 43.5 39.2998l28.5 -31.7998c-27.4004 -8.89941 -45.4004 -39.8994 -45.4004 -39.8994c-15.7998 -28.5 -27.0996 -89.4004 0.600586 -127.301c32.3994 -44.5996 87.7002 2.80078 87.7002 2.80078c102.699 91.8994 -10.5 225 -10.5 225
c-6.10059 5.5 0.799805 2.7998 0.799805 2.7998c50.0996 -36.5 114.6 -84.4004 116.2 -204.8c2 -145.601 -99.9004 -249.4 -242.4 -249.4z" />
    <glyph glyph-name="empire" unicode="&#xf1d1;" horiz-adv-x="496" 
d="M287.6 393.8c-10.7998 2.2002 -22.0996 3.2998 -33.5 3.60059v18.1992c78.1006 -2.19922 146.101 -44 184.601 -106.6l-15.7998 -9.09961c-6.10059 9.69922 -12.7002 18.7998 -20.2002 27.0996l-18 -15.5c-26 29.5996 -61.4004 50.7002 -101.9 58.4004zM53.4004 125.6
c3.89941 -10.7998 8.2998 -21.0996 13.5996 -31.0996l-15.7998 -9.09961c-17.1006 31.5996 -27.1006 68.0996 -27.1006 106.6s9.90039 75 27.1006 106.5l15.7998 -9.09961c-5.2998 -9.7002 -10 -20.2002 -13.5996 -31l22.6992 -7.7002
c-6.39941 -18.2998 -9.69922 -38.2002 -9.69922 -58.7002s3.59961 -40.4004 10 -58.7002zM213.1 14l-4.69922 -23.7998c10.7998 -1.90039 22.1992 -3.2998 33.5 -3.60059v-18.2998c-78.1006 2.2998 -146.4 44.2998 -184.9 106.601l16 9.39941
c5.7998 -9.7002 12.7002 -18.7998 20.2002 -27.3994l18 15.7998c26.0996 -29.6006 61.5 -50.7002 101.899 -58.7002zM93.2998 327.1c-7.5 -8.2998 -14.0996 -17.5 -20.0996 -27.1992l-15.7998 9.09961c38.5 62.5996 106.5 104.4 184.6 106.6v-18.1992
c-11.4004 -0.300781 -22.7002 -1.40039 -33.5 -3.60059l4.7002 -23.7998c-40.5 -7.7002 -75.9004 -28.7998 -101.9 -58.4004zM402.7 56.9004c7.5 8.59961 14.3994 17.6992 20.0996 27.3994l16.1006 -9.39941c-38.5 -62.3008 -106.801 -104.4 -184.9 -106.601v18.2998
c11.4004 0.300781 22.7002 1.7002 33.5 3.60059l-4.7002 23.7998c40.5 8 75.9004 29.0996 101.9 58.7002zM496 192c0 -137 -111 -248 -248 -248s-248 111 -248 248s111 248 248 248s248 -111 248 -248zM483.8 192c0 130.1 -105.7 235.8 -235.8 235.8
s-235.8 -105.7 -235.8 -235.8s105.7 -235.8 235.8 -235.8s235.8 105.7 235.8 235.8zM444.8 298.6c17.2002 -31.5996 27.1006 -68.0996 27.1006 -106.6s-9.90039 -75 -27.1006 -106.4l-15.7998 9.10059c5.2998 10 9.7002 20.2002 13.5996 31l-23 7.7002
c6.40039 18.2998 10 38.1992 10 58.6992s-3.2998 40.4004 -9.69922 58.7002l22.6992 7.7002c-3.59961 10.7998 -8.2998 21.2998 -13.5996 31zM261.8 120.9l13.2998 -66.7002c-8.59961 -1.7002 -17.6992 -2.7998 -27.0996 -2.7998s-18.5 1.09961 -27.0996 2.7998
l13.2998 66.7002c-16.2998 3.2998 -30.5 11.5996 -40.7002 23.5l-51.2002 -44.8008c-11.8994 13.6006 -21.2998 29.4004 -27.0996 46.8008l64.2002 22.0996c-2.5 7.40039 -3.90039 15.2002 -3.90039 23.5s1.40039 16 3.90039 23.5l-64.5 22.0996
c6.09961 17.5 15.5 33.2002 27.3994 46.8008l51.2002 -44.8008c10.2998 11.9004 24.4004 20.5 40.7002 23.8008l-13.2998 66.3994c8.59961 2 17.6992 2.7998 27.0996 2.7998s18.5 -0.899414 27.0996 -2.7998l-13.2998 -66.3994
c16.2998 -3.30078 30.5 -11.9004 40.7002 -23.8008l51.2002 44.8008c11.8994 -13.6006 21.2998 -29.4004 27.3994 -46.8008l-64.5 -22.0996c2.5 -7.40039 3.90039 -15.2002 3.90039 -23.5s-1.40039 -16 -3.90039 -23.5l64.2002 -22.0996
c-5.7998 -17.5 -15.2002 -33.2002 -27.0996 -46.8008l-51.2002 44.8008c-10.2998 -11.9004 -24.4004 -20.2002 -40.7002 -23.5z" />
    <glyph glyph-name="git-square" unicode="&#xf1d2;" 
d="M100.59 113.76c48.5703 -3.30957 58.9502 -2.10938 58.9502 -11.9395c0 -20 -65.5498 -20.0605 -65.5498 -1.52051c0.00976562 5.08984 3.29004 9.40039 6.59961 13.46zM128.54 230.4c30.96 0 31.7598 -44.4707 -0.75 -44.4707c-33 0 -31.54 44.4707 0.75 44.4707z
M448 368v-352c0 -26.4961 -21.5039 -48 -48 -48h-352c-26.4961 0 -48 21.5039 -48 48v352c0 26.4961 21.5039 48 48 48h352c26.4961 0 48 -21.5039 48 -48zM221 298.69c0 -14.4902 8.37988 -22.8809 22.8604 -22.8809c14.7393 0 23.1299 8.39062 23.1299 22.8809
c0 14.4893 -8.37012 22.3096 -23.1104 22.3096c-14.4795 0 -22.8799 -7.83984 -22.8799 -22.3096zM199.18 253h-49.5498c-25 6.5498 -81.5596 4.84961 -81.5596 -46.75c0 -18.7998 9.39941 -32 21.8496 -38.1104c-15.6895 -14.3701 -23.1201 -21.1396 -23.1201 -30.7393
c0 -6.87012 2.79004 -13.2207 11.1807 -16.7607c-8.90039 -8.39941 -14 -14.4795 -14 -25.9199c0.0195312 -20.0693 17.5498 -31.7197 63.5391 -31.7197c44.2207 0 69.8701 16.5098 69.8701 45.7305c0 36.6699 -28.2295 35.3193 -94.7695 39.3799l8.37988 13.4297
c17 -4.74023 74.1904 -6.23047 74.1904 42.4297c0 11.6904 -4.83008 19.8203 -9.40039 25.6699l23.3799 1.78027zM283.52 143.16l-13 1.78027c-3.81934 0.509766 -4.06934 1 -4.06934 5.08984v105.45h-52.6006l-2.79004 -20.5703c15.75 -5.5498 17 -4.86035 17 -10.1699
v-74.7402c0 -5.62012 -0.30957 -4.58008 -17 -6.87012v-20.0596h72.4209zM384 133l-6.87012 22.3701c-40.9297 -15.3701 -37.8496 12.4102 -37.8496 16.7295v60.7207h37.8496v25.4102h-35.8203c-2.86914 0 -2 -2.52051 -2 38.6299h-24.1797
c-2.79004 -27.7002 -11.6797 -38.8799 -34 -41.4199v-22.6201c20.4697 0 19.8203 0.849609 19.8203 -2.54004v-66.5703c0 -28.7197 11.4297 -40.9102 41.6699 -40.9102c14.4502 0 30.4502 4.83008 41.3799 10.2002z" />
    <glyph glyph-name="git" unicode="&#xf1d3;" horiz-adv-x="512" 
d="M216.29 289.61l0.0400391 -34.5508l-37.4102 -2.83984c7.27051 -9.35938 15 -22.3701 15 -41.0693c0 -77.8906 -91.4297 -75.4707 -118.7 -67.8906l-13.4297 -21.5498c106.47 -6.5 151.63 -4.33984 151.63 -63c0 -46.7598 -41.04 -73.1797 -111.79 -73.1797
c-73.5801 0 -101.63 18.71 -101.63 50.8193c0 18.3008 8.12988 28.04 22.4004 41.4502c-13.4199 5.66992 -17.8906 15.8105 -17.8906 26.8105c0 15.3594 11.9004 26.21 37 49.21c-20 9.76953 -35 30.9102 -35 61c0 82.5498 90.4902 85.2793 130.49 74.79h79.29z
M152.87 47.71c0 15.7402 -16.6104 13.8096 -94.3203 19.1104c-5.2998 -6.54004 -10.5693 -13.4004 -10.5693 -21.54c0 -29.6699 104.89 -29.6299 104.89 2.42969zM102.06 182.29c52.0205 0 50.7402 71.1602 1.2002 71.1602c-51.6602 0 -54 -71.1602 -1.2002 -71.1602z
M235.36 81.7803v32.0996c26.75 3.66016 27.2393 2 27.2393 11v119.51c0 8.5 -2.0498 7.37988 -27.2393 16.2607l4.46973 32.9199h84.1699v-168.71c0 -6.51074 0.400391 -7.32031 6.50977 -8.14062l20.7305 -2.83984v-32.0996h-115.88zM287.81 326.09
c-23.1699 0 -36.5898 13.4297 -36.5898 36.6104c0 23.1797 13.4199 35.7695 36.5898 35.7695c23.5801 0 37 -12.6201 37 -35.7695c0 -23.1504 -13.4199 -36.6104 -37 -36.6104zM512 97.54c-17.4902 -8.53027 -43.0996 -16.2598 -66.2803 -16.2598
c-48.3799 0 -66.6699 19.5 -66.6699 65.46v106.51c0 5.41992 1.0498 4.05957 -31.71 4.05957v36.1904c35.7803 4.07031 50 22 54.4697 66.2695h38.6309c0 -65.8291 -1.34082 -61.8096 3.25977 -61.8096h57.2998v-40.6504h-60.5596v-97.1494
c0 -6.91992 -4.9209 -51.4102 60.5693 -26.8398z" />
    <glyph glyph-name="hacker-news" unicode="&#xf1d4;" 
d="M0 416h448v-448h-448v448zM21.2002 218.8h-0.200195c0.0996094 0.100586 0.200195 0.299805 0.299805 0.400391c0 -0.100586 0 -0.299805 -0.0996094 -0.400391zM239.2 164.9l80.7998 155.1h-34.7998c-54.7998 -101.2 -48.2998 -98.5996 -60.6006 -125.6
c-10.0996 24.3994 -6.7998 27.2998 -59.2998 125.6h-37.2998l79.7998 -153.3v-102.7h31.4004v100.9z" />
    <glyph glyph-name="tencent-weibo" unicode="&#xf1d5;" horiz-adv-x="384" 
d="M72.2998 -47.7998c1.40039 -19.9004 -27.5996 -22.2002 -29.7002 -2.90039c-11.5996 129.9 31.1006 239.5 101.4 313.2c-15.5996 34 9.2002 77.0996 50.5996 77.0996c30.3008 0 55.1006 -24.5996 55.1006 -55.0996c0 -44 -49.5 -70.7998 -86.9004 -45.0996
c-65.7002 -71.3008 -101.399 -169.801 -90.5 -287.2zM192 447.9c92 0 166.6 -74.6006 166.6 -166.5c0 -102.301 -93.2998 -185.5 -204 -162.301c-19 4.7002 -12.5 33.2002 6.60059 29.1006c80.7998 -20.7998 167.7 42.2998 167.7 133.1c0 75.5 -61.5 136.9 -136.9 136.9
c-101 0 -168.3 -106.601 -122 -199.2c9 -17.9004 -17.5996 -30.7998 -26.2998 -13.4004c-56 108.101 22.3994 242.301 148.3 242.301z" />
    <glyph glyph-name="qq" unicode="&#xf1d6;" 
d="M433.754 27.5547c-11.5264 -1.39258 -44.8604 52.7412 -44.8604 52.7412c0 -31.3447 -16.1357 -72.2471 -51.0508 -101.786c16.8418 -5.19141 54.8428 -19.167 45.8037 -34.4209c-7.31641 -12.3428 -125.511 -7.88086 -159.633 -4.03711
c-34.1221 -3.84375 -152.315 -8.30566 -159.632 4.03711c-9.04492 15.25 28.918 29.2139 45.7832 34.415c-34.9199 29.5391 -51.0586 70.4453 -51.0586 101.792c0 0 -33.334 -54.1338 -44.8594 -52.7412c-5.37012 0.650391 -12.4238 29.6445 9.34668 99.7041
c10.2617 33.0244 21.9951 60.4785 40.1445 105.779c-3.05566 116.898 45.2441 214.956 160.262 214.962c113.737 -0.00585938 163.156 -96.1328 160.264 -214.963c18.1182 -45.2227 29.9121 -72.8506 40.1445 -105.778c21.7676 -70.0596 14.7158 -99.0527 9.3457 -99.7041z
" />
    <glyph glyph-name="weixin" unicode="&#xf1d7;" horiz-adv-x="576" 
d="M385.2 280.4c-92.4004 0 -165.4 -69.1006 -165.3 -154c0 -14.2002 2.19922 -27.9004 6.19922 -40.8008c-6.19922 -0.5 -12.0996 -0.799805 -18.2998 -0.799805c-24.3994 0 -43.7998 4.90039 -68.2002 9.7002l-68 -34.0996l19.3008 58.5996
c-48.6006 34.0996 -77.9004 78.2002 -77.9004 131.6c0 92.6006 87.5 165.4 194.7 165.4c95.5996 0 179.7 -58.2998 196.3 -136.7c-6.2002 0.799805 -12.4004 1.10059 -18.7998 1.10059zM280.7 333.3c-14.7002 0 -29.2002 -9.7002 -29.2998 -24.3994
c0 -14.5 14.5 -24.2002 29.2998 -24.2002c14.5 0 24.2002 9.7002 24.2002 24.2002c0 14.6992 -9.7002 24.3994 -24.2002 24.3994zM144.3 284.7c14.7998 0 24.4004 9.59961 24.4004 24.2002c0 14.6992 -9.60059 24.3994 -24.4004 24.3994
c-14.5 0 -29.2998 -9.59961 -29.2998 -24.3994c0 -14.5 14.7998 -24.2002 29.2998 -24.2002zM563 128.6c0 -43.7998 -29 -82.6992 -68.2002 -112.1l14.7998 -48.5996l-53.3994 29.2998c-19.7002 -4.7998 -39.2998 -9.90039 -58.6006 -9.90039
c-92.5996 0 -165.399 63.4004 -165.399 141.3c0 77.9004 72.7002 141.301 165.399 141.301c87.5 0 165.4 -63.4004 165.4 -141.301zM343.9 153.1c14.6992 0 24.3994 9.60059 24.3994 19.6006c0 9.59961 -9.59961 19.2998 -24.3994 19.2998
c-9.60059 0 -19.3008 -9.59961 -19.3008 -19.2998c0 -9.90039 9.60059 -19.6006 19.3008 -19.6006zM451 153.1c14.5 0 24.5 9.60059 24.4004 19.6006c0 9.59961 -9.90039 19.2998 -24.4004 19.2998c-9.59961 0 -19.2998 -9.59961 -19.2998 -19.2998
c0 -9.90039 9.59961 -19.6006 19.2998 -19.6006z" />
    <glyph glyph-name="slideshare" unicode="&#xf1e7;" horiz-adv-x="512" 
d="M187.7 294.3c34 0 61.7002 -25.7002 61.7002 -57.7002c0 -31.6992 -27.7002 -57.6992 -61.7002 -57.6992s-61.7002 26 -61.7002 57.6992c0 32 27.7002 57.7002 61.7002 57.7002zM331.1 294.3c34.3008 0 61.8008 -25.7002 61.7002 -57.7002
c0 -31.6992 -27.3994 -57.6992 -61.7002 -57.6992c-34 0 -61.6992 26 -61.6992 57.6992c0 32 27.6992 57.7002 61.6992 57.7002zM487.7 204.3c15.2002 10.5 25.2002 -4 16.0996 -17.7998c-18.2998 -22.5996 -53.2002 -50.2998 -106.3 -72
c56.2998 -191.7 -137.4 -222.3 -134.3 -124c0 0.700195 -0.299805 53.7998 -0.299805 93.5c-4.30078 0.799805 -8.60059 2 -13.7002 3.09961c0 -40 -0.299805 -95.8994 -0.299805 -96.5996c3.09961 -98.2002 -190.601 -67.5996 -134.301 124.1
c-53.1992 21.7002 -88 49.4004 -106.3 72c-9.09961 13.7002 0.900391 28.3008 16 17.7002c2 -1.39941 4.2998 -2.89941 6.2998 -4.2998v198.3c0 27.4004 20.6006 49.7002 46 49.7002h359.101c25.3994 0 46 -22.2998 46 -49.7002v-198.3zM457.2 185.1h0.0996094v190.601
c0 32.7998 -10.5996 45.7002 -40.8994 45.7002h-317.7c-31.7002 0 -40.6006 -10.8008 -40.6006 -45.7002v-192.4c67.7002 -35.3994 125.7 -29.0996 157.4 -28c13.4004 0.299805 22 -2.2998 27.0996 -7.7002c1.7002 -1.59961 10 -9.39941 20.3008 -17.0996
c1.09961 15.7998 10 25.7998 33.6992 24.9004c32.3008 -1.40039 91.7002 -7.7002 160.601 29.6992z" />
    <glyph glyph-name="twitch" unicode="&#xf1e8;" 
d="M40.0996 416h397.9v-274.2l-117 -117h-87l-56.7998 -56.7998h-60.2002v56.7998h-107v314.3zM397.9 161.9v214h-321v-280.9h90.2998v-56.7998l56.7998 56.7998h107zM331 299v-116.9h-40.0996v116.9h40.0996zM224 299v-116.9h-40.0996v116.9h40.0996z" />
    <glyph glyph-name="yelp" unicode="&#xf1e9;" horiz-adv-x="384" 
d="M42.9004 207.68l99.6191 -48.6094c19.2002 -9.40039 16.2002 -37.5107 -4.5 -42.71l-107.52 -26.8105c-1.51074 -0.379883 -4 -0.6875 -5.55762 -0.6875c-11.2676 0 -21.415 9.08887 -22.6523 20.2881c-0.708984 6.18164 -1.28516 16.25 -1.28516 22.4727
c0 17.8105 4.60742 45.9658 10.2852 62.8467c2.88574 8.56836 12.5664 15.5215 21.6074 15.5215c2.9082 0 7.38867 -1.03516 10.0029 -2.31152zM86.9004 -31.5703c-5.48535 3.75195 -9.92773 12.1904 -9.92773 18.8359c0 4.8291 2.61914 11.6631 5.84766 15.2539
l74.21 82.4004c14.3096 15.8105 40.5098 5.2002 39.8096 -16.0996l-3.89941 -110.82c-0.412109 -12.1484 -10.6123 -22.0078 -22.7676 -22.0078c-1.07129 0 -2.79688 0.146484 -3.85254 0.328125c-23.8691 4.04199 -59.4492 18.4277 -79.4199 32.1094zM232.24 78.3496
c-11.2998 18.1104 6.2002 40.4102 26.5098 33.9102l105.42 -34.2598c8.69043 -2.88965 15.7422 -12.667 15.7422 -21.8252c0 -2.8125 -0.963867 -7.16504 -2.15234 -9.71484c-10.418 -21.8799 -34.0322 -52.1689 -52.71 -67.6104
c-3.50586 -2.88867 -10.0391 -5.2334 -14.582 -5.2334c-6.99707 0 -15.6963 4.80859 -19.418 10.7334zM380.57 210.58c1.04688 -2.41602 1.93652 -6.5127 1.93652 -9.14551c0 -9.49805 -7.39551 -19.3828 -16.5068 -22.0645l-106.64 -30.5098
c-20.5 -5.90039 -37.1006 17.0098 -25.2002 34.71l62 91.9199c3.75 5.55664 12.2354 10.0654 18.9385 10.0654c4.74512 0 11.4932 -2.53809 15.0615 -5.66602c18.166 -16.0361 40.75 -47.0869 50.4102 -69.3096zM62.1104 417.82
c29.4697 14.0293 79.793 27.5137 112.33 30.0996c0.503906 0.0410156 1.32422 0.0742188 1.83008 0.0742188c12.5146 0 22.6709 -10.1562 22.6709 -22.6699c0 -0.0566406 -0.000976562 -0.147461 -0.000976562 -0.204102v-208.34
c0 -23.2998 -30.9102 -31.6006 -42.6104 -11.4004l-104.12 180.44c-1.68164 2.92188 -3.0459 8.0293 -3.0459 11.4014c0 7.93066 5.7998 17.1592 12.9463 20.5986z" />
    <glyph glyph-name="paypal" unicode="&#xf1ed;" horiz-adv-x="384" 
d="M111.4 152.1c-3.5 -19.1992 -17.4004 -108.699 -21.5 -134c-0.300781 -1.7998 -1 -2.5 -3 -2.5h-74.6006c-7.59961 0 -13.0996 6.60059 -12.0996 13.9004l58.5996 371.9c1.5 9.59961 10.1006 16.8994 20 16.8994c152.3 0 165.101 3.7002 204 -11.3994
c60.1006 -23.3008 65.6006 -79.5 44 -140.301c-21.5 -62.5996 -72.5 -89.5 -140.1 -90.2998c-43.4004 -0.700195 -69.5 7 -75.2998 -24.2002zM357.1 296c28.4004 -21.2002 30.3008 -57.7998 23.8008 -92.5996c-16.5 -83.5 -71.9004 -112.301 -142.9 -112.301
c-15 0 -24.7002 2.30078 -29.2998 -19.6992c-15.5 -97.4004 -13.7002 -85.9004 -14.4004 -91.3008c-1.7002 -8.59961 -8.7998 -14.8994 -17.3994 -14.8994h-63.5c-7.10059 0 -11.6006 5.7998 -10.6006 12.8994c0 0 4.5 29.3008 27.1006 169.7
c0.799805 6.10059 4.7998 9.40039 10.8994 9.40039c54 0 164.601 -9.90039 204.5 103.899c3.7002 11.1006 6.7998 22.2002 8.7998 33.6006c0.5 3.09961 1.2002 2.59961 3 1.2998z" />
    <glyph glyph-name="google-wallet" unicode="&#xf1ee;" 
d="M156.8 321.2c37.6006 -60.6006 64.2002 -113.101 84.2998 -162.5c-8.2998 -33.7998 -18.7998 -66.5 -31.2998 -98.2998c-13.2002 52.2998 -26.5 101.3 -56 148.5c6.5 36.3994 2.2998 73.5996 3 112.3zM109.3 248c5 0 10 -2.5 13 -6.5
c43.7998 -59.7998 66.2998 -123.8 82.5 -193.5h-103.5c-20 69.5 -49.5 133 -91.7002 187.3c-4 5.2002 0 12.7002 6.5 12.7002h93.2002zM157.1 336h108.7c74.7998 -103 131.2 -230 143.2 -368h-113.7c-8.2002 133.5 -69.7002 260 -138.2 368zM408.9 404.5
c19 -67.5 31.0996 -139 31.0996 -212.6c0 -69.5 -9.5 -142.5 -25.2998 -203c-10.9004 92.5 -42.4004 184.6 -90.6006 270.8c-4.19922 50.5 -13.2998 99.5 -26.5 146c-1.19922 5.2998 2.5 10.2998 7.80078 10.2998h88.2998c7 0 13.3994 -4.7002 15.2002 -11.5z" />
    <glyph glyph-name="cc-visa" unicode="&#xf1f0;" horiz-adv-x="576" 
d="M470.1 216.7c0 0 7.60059 -37.2002 9.30078 -45h-33.4004c3.2998 8.89941 16 43.5 16 43.5c-0.200195 -0.299805 3.2998 9.09961 5.2998 14.8994zM576 368v-352c0 -26.5 -21.5 -48 -48 -48h-480c-26.5 0 -48 21.5 -48 48v352c0 26.5 21.5 48 48 48h480
c26.5 0 48 -21.5 48 -48zM152.5 116.8l63.2002 155.2h-42.5l-39.2998 -106l-4.30078 21.5l-14 71.4004c-2.2998 9.89941 -9.39941 12.6992 -18.1992 13.0996h-64.7002l-0.700195 -3.09961c15.7998 -4 29.9004 -9.80078 42.2002 -17.1006l35.7998 -135h42.5zM246.9 116.6
l25.1992 155.4h-40.1992l-25.1006 -155.4h40.1006zM386.8 167.4c0.200195 17.6992 -10.5996 31.1992 -33.7002 42.2998c-14.0996 7.09961 -22.6992 11.8994 -22.6992 19.2002c0.199219 6.59961 7.2998 13.3994 23.0996 13.3994
c13.0996 0.299805 22.7002 -2.7998 29.9004 -5.89941l3.59961 -1.7002l5.5 33.5996c-7.90039 3.10059 -20.5 6.60059 -36 6.60059c-39.7002 0 -67.5996 -21.2002 -67.7998 -51.4004c-0.299805 -22.2998 20 -34.7002 35.2002 -42.2002
c15.5 -7.59961 20.7998 -12.5996 20.7998 -19.2998c-0.200195 -10.4004 -12.6006 -15.2002 -24.1006 -15.2002c-16 0 -24.5996 2.5 -37.6992 8.2998l-5.30078 2.5l-5.59961 -34.8994c9.40039 -4.2998 26.7998 -8.10059 44.7998 -8.2998
c42.2002 -0.100586 69.7002 20.7998 70 53zM528 116.6l-32.4004 155.4h-31.0996c-9.59961 0 -16.9004 -2.7998 -21 -12.9004l-59.7002 -142.5h42.2002s6.90039 19.2002 8.40039 23.3008h51.5996c1.2002 -5.5 4.7998 -23.3008 4.7998 -23.3008h37.2002z" />
    <glyph glyph-name="cc-mastercard" unicode="&#xf1f1;" horiz-adv-x="576" 
d="M482.9 37.7002c0 -6.7998 -4.60059 -11.7002 -11.2002 -11.7002c-6.7998 0 -11.2002 5.2002 -11.2002 11.7002s4.40039 11.7002 11.2002 11.7002c6.59961 0 11.2002 -5.2002 11.2002 -11.7002zM172.1 49.4004c6.5 0 10.8008 -5.2002 10.9004 -11.7002
c0 -6.7998 -4.40039 -11.7002 -10.9004 -11.7002c-7.09961 0 -11.1992 5.2002 -11.1992 11.7002s4.09961 11.7002 11.1992 11.7002zM289.6 49.7002c5.2002 0 8.7002 -3 9.60059 -8.7002h-19.1006c0.800781 5.2002 4.10059 8.7002 9.5 8.7002zM397.4 49.4004
c6.7998 0 11.1992 -5.2002 11.1992 -11.7002c0 -6.7998 -4.39941 -11.7002 -11.1992 -11.7002c-6.80078 0 -10.9004 5.2002 -10.9004 11.7002s4.09961 11.7002 10.9004 11.7002zM503.3 23.2998c0 -0.299805 0.299805 -0.5 0.299805 -1.09961
c0 -0.299805 -0.299805 -0.5 -0.299805 -1.10059c-0.299805 -0.299805 -0.299805 -0.5 -0.5 -0.799805c-0.299805 -0.299805 -0.5 -0.5 -1.09961 -0.5c-0.299805 -0.299805 -0.5 -0.299805 -1.10059 -0.299805c-0.299805 0 -0.5 0 -1.09961 0.299805
c-0.299805 0 -0.5 0.299805 -0.799805 0.5c-0.299805 0.299805 -0.5 0.5 -0.5 0.799805c-0.299805 0.5 -0.299805 0.800781 -0.299805 1.10059c0 0.5 0 0.799805 0.299805 1.09961c0 0.5 0.299805 0.799805 0.5 1.10059c0.299805 0.299805 0.5 0.299805 0.799805 0.5
c0.5 0.299805 0.799805 0.299805 1.09961 0.299805c0.5 0 0.800781 0 1.10059 -0.299805c0.5 -0.300781 0.799805 -0.300781 1.09961 -0.5c0.299805 -0.200195 0.200195 -0.600586 0.5 -1.10059zM501.1 21.9004c0.5 0 0.5 0.299805 0.800781 0.299805
c0.299805 0.299805 0.299805 0.5 0.299805 0.799805s0 0.5 -0.299805 0.799805c-0.300781 0 -0.5 0.299805 -1.10059 0.299805h-1.59961v-3.5h0.799805v1.40039h0.299805l1.10059 -1.40039h0.799805zM576 367v-352c0 -26.5 -21.5 -48 -48 -48h-480c-26.5 0 -48 21.5 -48 48
v352c0 26.5 21.5 48 48 48h480c26.5 0 48 -21.5 48 -48zM64 227.4c0 -76.5 62.0996 -138.5 138.5 -138.5c27.2002 0 53.9004 8.19922 76.5 23.0996c-72.9004 59.2998 -72.4004 171.2 0 230.5c-22.5996 15 -49.2998 23.0996 -76.5 23.0996
c-76.4004 0.100586 -138.5 -62 -138.5 -138.199zM288 118.6c70.5 55 70.2002 162.2 0 217.5c-70.2002 -55.2998 -70.5 -162.6 0 -217.5zM145.7 42.2998c0 8.7002 -5.7002 14.4004 -14.7002 14.7002c-4.59961 0 -9.5 -1.40039 -12.7998 -6.5
c-2.40039 4.09961 -6.5 6.5 -12.2002 6.5c-3.7998 0 -7.59961 -1.40039 -10.5996 -5.40039v4.40039h-8.2002v-36.7002h8.2002c0 18.9004 -2.5 30.2002 9 30.2002c10.1992 0 8.19922 -10.2002 8.19922 -30.2002h7.90039c0 18.2998 -2.5 30.2002 9 30.2002
c10.2002 0 8.2002 -10 8.2002 -30.2002h8.2002v23h-0.200195zM190.6 56h-7.89941v-4.40039c-2.7002 3.30078 -6.5 5.40039 -11.7002 5.40039c-10.2998 0 -18.2002 -8.2002 -18.2002 -19.2998c0 -11.2002 7.90039 -19.2998 18.2002 -19.2998
c5.2002 0 9 1.89941 11.7002 5.39941v-4.59961h7.89941v36.7998zM231.1 30.4004c0 15 -22.8994 8.19922 -22.8994 15.1992c0 5.7002 11.8994 4.80078 18.5 1.10059l3.2998 6.5c-9.40039 6.09961 -30.2002 6 -30.2002 -8.2002c0 -14.2998 22.9004 -8.2998 22.9004 -15
c0 -6.2998 -13.5 -5.7998 -20.7002 -0.799805l-3.5 -6.2998c11.2002 -7.60059 32.5996 -6 32.5996 7.5zM266.5 21.0996l-2.2002 6.80078c-3.7998 -2.10059 -12.2002 -4.40039 -12.2002 4.09961v16.5996h13.1006v7.40039h-13.1006v11.2002h-8.19922v-11.2002h-7.60059
v-7.2998h7.60059v-16.7002c0 -17.5996 17.2998 -14.4004 22.5996 -10.9004zM279.8 34.5h27.5c0 16.2002 -7.39941 22.5996 -17.3994 22.5996c-10.6006 0 -18.2002 -7.89941 -18.2002 -19.2998c0 -20.5 22.5996 -23.8994 33.7998 -14.2002l-3.7998 6
c-7.7998 -6.39941 -19.6006 -5.7998 -21.9004 4.90039zM338.9 56c-4.60059 2 -11.6006 1.7998 -15.2002 -4.40039v4.40039h-8.2002v-36.7002h8.2002v20.7002c0 11.5996 9.5 10.0996 12.7998 8.40039zM349.5 37.7002c0 11.3994 11.5996 15.0996 20.7002 8.39941l3.7998 6.5
c-11.5996 9.10059 -32.7002 4.10059 -32.7002 -15c0 -19.7998 22.4004 -23.7998 32.7002 -15l-3.7998 6.5c-9.2002 -6.5 -20.7002 -2.59961 -20.7002 8.60059zM416.2 56h-8.2002v-4.40039c-8.2998 11 -29.9004 4.80078 -29.9004 -13.8994
c0 -19.2002 22.4004 -24.7002 29.9004 -13.9004v-4.59961h8.2002v36.7998zM449.9 56c-2.40039 1.2002 -11 2.90039 -15.2002 -4.40039v4.40039h-7.90039v-36.7002h7.90039v20.7002c0 11 9 10.2998 12.7998 8.40039zM490.2 70.9004h-7.90039v-19.3008
c-8.2002 10.9004 -29.8994 5.10059 -29.8994 -13.8994c0 -19.4004 22.5 -24.6006 29.8994 -13.9004v-4.59961h7.90039v51.7002zM497.8 146v-4.59961h0.799805v4.59961h1.90039v0.799805h-4.59961v-0.799805h1.89941zM504.4 22.2002c0 0.5 0 1.09961 -0.300781 1.59961
c-0.299805 0.299805 -0.5 0.799805 -0.799805 1.10059c-0.299805 0.299805 -0.799805 0.5 -1.09961 0.799805c-0.5 0 -1.10059 0.299805 -1.60059 0.299805c-0.299805 0 -0.799805 -0.299805 -1.39941 -0.299805c-0.5 -0.299805 -0.799805 -0.5 -1.10059 -0.799805
c-0.5 -0.300781 -0.799805 -0.800781 -0.799805 -1.10059c-0.299805 -0.5 -0.299805 -1.09961 -0.299805 -1.59961c0 -0.299805 0 -0.799805 0.299805 -1.40039c0 -0.299805 0.299805 -0.799805 0.799805 -1.09961c0.300781 -0.299805 0.5 -0.5 1.10059 -0.799805
c0.5 -0.300781 1.09961 -0.300781 1.39941 -0.300781c0.5 0 1.10059 0 1.60059 0.300781c0.299805 0.299805 0.799805 0.5 1.09961 0.799805s0.5 0.799805 0.799805 1.09961c0.300781 0.600586 0.300781 1.10059 0.300781 1.40039zM507.6 146.9h-1.39941l-1.60059 -3.5
l-1.59961 3.5h-1.40039v-5.40039h0.800781v4.09961l1.59961 -3.5h1.09961l1.40039 3.5v-4.09961h1.09961v5.40039zM512 227.4c0 76.1992 -62.0996 138.3 -138.5 138.3c-27.2002 0 -53.9004 -8.2002 -76.5 -23.1006c72.0996 -59.2998 73.2002 -171.5 0 -230.5
c22.5996 -15 49.5 -23.0996 76.5 -23.0996c76.4004 -0.0996094 138.5 61.9004 138.5 138.4z" />
    <glyph glyph-name="cc-discover" unicode="&#xf1f2;" horiz-adv-x="576" 
d="M520.4 251.9c0 -8.40039 -5.5 -12.8008 -15.8008 -12.8008h-4.69922v24.9004h4.89941c10.1006 0 15.6006 -4.2002 15.6006 -12.0996zM528 416c26.5 0 48 -21.5 48 -48v-352c0 -26.5 -21.5 -48 -48 -48h-480c-26.5 0 -48 21.5 -48 48v352c0 26.5 21.5 48 48 48h480z
M483.9 277.1v-82h16v32.8008h2.19922l22.2002 -32.8008h19.6006l-25.8008 34.4004c12.1006 2.5 18.7002 10.5996 18.7002 23.2002c0 28.5 -30.2998 24.3994 -52.8994 24.3994zM428 277v-82h45.2998v13.7998h-29.2998v22.2002h28.2998v13.7998h-28.2998v18.2002h29.2998v14
h-45.2998zM359.3 277h-17.5l35 -84.2002h8.60059l35.5 84.2002h-17.5l-22.2002 -55.2002zM303.4 280c-24.6006 0 -44.6006 -19.9004 -44.6006 -44.5996c0 -24.6006 19.9004 -44.6006 44.6006 -44.6006c24.5996 0 44.5996 19.9004 44.5996 44.6006
c0 24.5996 -19.9004 44.5996 -44.5996 44.5996zM254.1 273.9c-30.1992 15 -63.2998 -6.80078 -63.2998 -38c0 -32.5 33.6006 -52.5 63.2998 -38.2002v19c-19.2998 -19.2998 -46.7998 -5.7998 -46.7998 19.2002c0 23.6992 26.7002 39.0996 46.7998 19v19zM156.9 207.6
c-7.60059 0 -13.8008 3.7002 -17.5 10.8008l-10.3008 -9.90039c17.8008 -26.0996 56.6006 -18.2002 56.6006 11.2998c0 13.1006 -5.40039 19 -23.6006 25.6006c-9.59961 3.39941 -12.2998 5.89941 -12.2998 10.2998c0 8.7002 14.5 14.0996 24.9004 2.5l8.39941 10.7998
c-19.0996 17.0996 -49.6992 8.90039 -49.6992 -14.2998c0 -11.2998 5.19922 -17.2002 20.1992 -22.7002c25.7002 -9.09961 14.7002 -24.4004 3.30078 -24.4004zM55.4004 195c30.8994 0 44.0996 22.4004 44.0996 40.9004c0 24.0996 -18 41.0996 -44.0996 41.0996h-23.4004
v-82h23.4004zM122.9 195v82h-16v-82h16zM544 15v145c-33.2998 -20.7998 -226.4 -124.4 -416 -160h401c8.2002 0 15 6.7998 15 15zM74.0996 256.4c5.7002 -5 8.90039 -12.6006 8.90039 -20.5c0 -7.90039 -3.2002 -15.5 -8.90039 -20.7002
c-4.89941 -4.40039 -11.5996 -6.40039 -21.8994 -6.40039h-4.2002v54.2002h4.2002c10.2998 0 16.7002 -1.7002 21.8994 -6.59961z" />
    </font>
</defs>
</svg>
